  0
SECTION
  2
HEADER
  9
$ACADVER
  1
AC1015
  9
$ACADMAINTVER
 70
     6
  9
$DWGCODEPAGE
  3
ANSI_1252
  9
$INSBASE
 10
0.0
 20
0.0
 30
0.0
  9
$EXTMIN
 10
-104.7270646427525
 20
0.0
 30
0.0
  9
$EXTMAX
 10
0.27293535724763
 20
148.5
 30
0.0
  9
$LIMMIN
 10
0.0
 20
0.0
  9
$LIMMAX
 10
12.0
 20
9.0
  9
$ORTHOMODE
 70
     0
  9
$REGENMODE
 70
     1
  9
$FILLMODE
 70
     1
  9
$QTEXTMODE
 70
     0
  9
$MIRRTEXT
 70
     1
  9
$LTSCALE
 40
1.0
  9
$ATTMODE
 70
     1
  9
$TEXTSIZE
 40
0.2
  9
$TRACEWID
 40
0.05
  9
$TEXTSTYLE
  7
Standard
  9
$CLAYER
  8
0
  9
$CELTYPE
  6
ByLayer
  9
$CECOLOR
 62
   256
  9
$CELTSCALE
 40
1.0
  9
$DISPSILH
 70
     0
  9
$DIMSCALE
 40
1.0
  9
$DIMASZ
 40
0.18
  9
$DIMEXO
 40
0.0625
  9
$DIMDLI
 40
0.38
  9
$DIMRND
 40
0.0
  9
$DIMDLE
 40
0.0
  9
$DIMEXE
 40
0.18
  9
$DIMTP
 40
0.0
  9
$DIMTM
 40
0.0
  9
$DIMTXT
 40
0.18
  9
$DIMCEN
 40
0.09
  9
$DIMTSZ
 40
0.0
  9
$DIMTOL
 70
     0
  9
$DIMLIM
 70
     0
  9
$DIMTIH
 70
     1
  9
$DIMTOH
 70
     1
  9
$DIMSE1
 70
     0
  9
$DIMSE2
 70
     0
  9
$DIMTAD
 70
     0
  9
$DIMZIN
 70
     0
  9
$DIMBLK
  1

  9
$DIMASO
 70
     1
  9
$DIMSHO
 70
     1
  9
$DIMPOST
  1

  9
$DIMAPOST
  1

  9
$DIMALT
 70
     0
  9
$DIMALTD
 70
     2
  9
$DIMALTF
 40
25.4
  9
$DIMLFAC
 40
1.0
  9
$DIMTOFL
 70
     0
  9
$DIMTVP
 40
0.0
  9
$DIMTIX
 70
     0
  9
$DIMSOXD
 70
     0
  9
$DIMSAH
 70
     0
  9
$DIMBLK1
  1

  9
$DIMBLK2
  1

  9
$DIMSTYLE
  2
Standard
  9
$DIMCLRD
 70
     0
  9
$DIMCLRE
 70
     0
  9
$DIMCLRT
 70
     0
  9
$DIMTFAC
 40
1.0
  9
$DIMGAP
 40
0.09
  9
$DIMJUST
 70
     0
  9
$DIMSD1
 70
     0
  9
$DIMSD2
 70
     0
  9
$DIMTOLJ
 70
     1
  9
$DIMTZIN
 70
     0
  9
$DIMALTZ
 70
     0
  9
$DIMALTTZ
 70
     0
  9
$DIMUPT
 70
     0
  9
$DIMDEC
 70
     4
  9
$DIMTDEC
 70
     4
  9
$DIMALTU
 70
     2
  9
$DIMALTTD
 70
     2
  9
$DIMTXSTY
  7
Standard
  9
$DIMAUNIT
 70
     0
  9
$DIMADEC
 70
     0
  9
$DIMALTRND
 40
0.0
  9
$DIMAZIN
 70
     0
  9
$DIMDSEP
 70
    46
  9
$DIMATFIT
 70
     3
  9
$DIMFRAC
 70
     0
  9
$DIMLDRBLK
  1

  9
$DIMLUNIT
 70
     2
  9
$DIMLWD
 70
    -2
  9
$DIMLWE
 70
    -2
  9
$DIMTMOVE
 70
     0
  9
$LUNITS
 70
     2
  9
$LUPREC
 70
     4
  9
$SKETCHINC
 40
0.1
  9
$FILLETRAD
 40
0.5
  9
$AUNITS
 70
     0
  9
$AUPREC
 70
     0
  9
$MENU
  1
.
  9
$ELEVATION
 40
0.0
  9
$PELEVATION
 40
0.0
  9
$THICKNESS
 40
0.0
  9
$LIMCHECK
 70
     0
  9
$CHAMFERA
 40
0.5
  9
$CHAMFERB
 40
0.5
  9
$CHAMFERC
 40
1.0
  9
$CHAMFERD
 40
0.0
  9
$SKPOLY
 70
     0
  9
$TDCREATE
 40
2456997.429313981
  9
$TDUCREATE
 40
2456997.387647315
  9
$TDUPDATE
 40
2456997.429313981
  9
$TDUUPDATE
 40
2456997.387647315
  9
$TDINDWG
 40
0.0000000116
  9
$TDUSRTIMER
 40
0.0000000116
  9
$USRTIMER
 70
     1
  9
$ANGBASE
 50
0.0
  9
$ANGDIR
 70
     0
  9
$PDMODE
 70
     0
  9
$PDSIZE
 40
0.0
  9
$PLINEWID
 40
0.0
  9
$SPLFRAME
 70
     0
  9
$SPLINETYPE
 70
     6
  9
$SPLINESEGS
 70
     8
  9
$HANDSEED
  5
18D
  9
$SURFTAB1
 70
     6
  9
$SURFTAB2
 70
     6
  9
$SURFTYPE
 70
     6
  9
$SURFU
 70
     6
  9
$SURFV
 70
     6
  9
$UCSBASE
  2

  9
$UCSNAME
  2

  9
$UCSORG
 10
0.0
 20
0.0
 30
0.0
  9
$UCSXDIR
 10
1.0
 20
0.0
 30
0.0
  9
$UCSYDIR
 10
0.0
 20
1.0
 30
0.0
  9
$UCSORTHOREF
  2

  9
$UCSORTHOVIEW
 70
     0
  9
$UCSORGTOP
 10
0.0
 20
0.0
 30
0.0
  9
$UCSORGBOTTOM
 10
0.0
 20
0.0
 30
0.0
  9
$UCSORGLEFT
 10
0.0
 20
0.0
 30
0.0
  9
$UCSORGRIGHT
 10
0.0
 20
0.0
 30
0.0
  9
$UCSORGFRONT
 10
0.0
 20
0.0
 30
0.0
  9
$UCSORGBACK
 10
0.0
 20
0.0
 30
0.0
  9
$PUCSBASE
  2

  9
$PUCSNAME
  2

  9
$PUCSORG
 10
0.0
 20
0.0
 30
0.0
  9
$PUCSXDIR
 10
1.0
 20
0.0
 30
0.0
  9
$PUCSYDIR
 10
0.0
 20
1.0
 30
0.0
  9
$PUCSORTHOREF
  2

  9
$PUCSORTHOVIEW
 70
     0
  9
$PUCSORGTOP
 10
0.0
 20
0.0
 30
0.0
  9
$PUCSORGBOTTOM
 10
0.0
 20
0.0
 30
0.0
  9
$PUCSORGLEFT
 10
0.0
 20
0.0
 30
0.0
  9
$PUCSORGRIGHT
 10
0.0
 20
0.0
 30
0.0
  9
$PUCSORGFRONT
 10
0.0
 20
0.0
 30
0.0
  9
$PUCSORGBACK
 10
0.0
 20
0.0
 30
0.0
  9
$USERI1
 70
     0
  9
$USERI2
 70
     0
  9
$USERI3
 70
     0
  9
$USERI4
 70
     0
  9
$USERI5
 70
     0
  9
$USERR1
 40
18.1
  9
$USERR2
 40
0.0
  9
$USERR3
 40
0.0
  9
$USERR4
 40
0.0
  9
$USERR5
 40
0.0
  9
$WORLDVIEW
 70
     1
  9
$SHADEDGE
 70
     3
  9
$SHADEDIF
 70
    70
  9
$TILEMODE
 70
     1
  9
$MAXACTVP
 70
    64
  9
$PINSBASE
 10
0.0
 20
0.0
 30
0.0
  9
$PLIMCHECK
 70
     0
  9
$PEXTMIN
 10
1.00000000000000E+20
 20
1.00000000000000E+20
 30
1.00000000000000E+20
  9
$PEXTMAX
 10
-1.00000000000000E+20
 20
-1.00000000000000E+20
 30
-1.00000000000000E+20
  9
$PLIMMIN
 10
0.0
 20
0.0
  9
$PLIMMAX
 10
12.0
 20
9.0
  9
$UNITMODE
 70
     0
  9
$VISRETAIN
 70
     1
  9
$PLINEGEN
 70
     0
  9
$PSLTSCALE
 70
     1
  9
$TREEDEPTH
 70
  3020
  9
$CMLSTYLE
  2
Standard
  9
$CMLJUST
 70
     0
  9
$CMLSCALE
 40
1.0
  9
$PROXYGRAPHICS
 70
     1
  9
$MEASUREMENT
 70
     1
  9
$CELWEIGHT
370
    -1
  9
$ENDCAPS
280
     0
  9
$JOINSTYLE
280
     0
  9
$LWDISPLAY
290
     0
  9
$INSUNITS
 70
     4
  9
$HYPERLINKBASE
  1

  9
$STYLESHEET
  1

  9
$XEDIT
290
     1
  9
$CEPSNTYPE
380
     0
  9
$PSTYLEMODE
290
     1
  9
$FINGERPRINTGUID
  2
{811DBE7E-79B5-4575-8F97-C0EE96AA5C02}
  9
$VERSIONGUID
  2
{FAEB1C32-E019-11D5-929B-00C0DF256EC4}
  9
$EXTNAMES
290
     1
  9
$PSVPSCALE
 40
0.0
  9
$OLESTARTUP
290
     0
  0
ENDSEC
  0
SECTION
  2
CLASSES
  0
CLASS
  1
ACDBDICTIONARYWDFLT
  2
AcDbDictionaryWithDefault
  3
ObjectDBX Classes
 90
        0
280
     0
281
     0
  0
CLASS
  1
VISUALSTYLE
  2
AcDbVisualStyle
  3
ObjectDBX Classes
 90
     4095
280
     0
281
     0
  0
CLASS
  1
MATERIAL
  2
AcDbMaterial
  3
ObjectDBX Classes
 90
     1153
280
     0
281
     0
  0
CLASS
  1
DICTIONARYVAR
  2
AcDbDictionaryVar
  3
ObjectDBX Classes
 90
        0
280
     0
281
     0
  0
CLASS
  1
ACDBPLACEHOLDER
  2
AcDbPlaceHolder
  3
ObjectDBX Classes
 90
        0
280
     0
281
     0
  0
CLASS
  1
LAYOUT
  2
AcDbLayout
  3
ObjectDBX Classes
 90
        0
280
     0
281
     0
  0
ENDSEC
  0
SECTION
  2
TABLES
  0
TABLE
  2
VPORT
  5
8
330
0
100
AcDbSymbolTable
 70
     1
  0
VPORT
  5
29
330
8
100
AcDbSymbolTableRecord
100
AcDbViewportTableRecord
  2
*Active
 70
     0
 10
0.0
 20
0.0
 11
1.0
 21
1.0
 12
-52.22706464275243
 22
74.25
 13
0.0
 23
0.0
 14
0.5
 24
0.5
 15
0.5
 25
0.5
 16
0.0
 26
0.0
 36
1.0
 17
0.0
 27
0.0
 37
0.0
 40
163.35
 41
1.60267857142857
 42
50.0
 43
0.0
 44
0.0
 50
0.0
 51
0.0
 71
     0
 72
   100
 73
     1
 74
     3
 75
     0
 76
     0
 77
     0
 78
     0
281
     0
 65
     1
110
0.0
120
0.0
130
0.0
111
1.0
121
0.0
131
0.0
112
0.0
122
1.0
132
0.0
 79
     0
146
0.0
  0
ENDTAB
  0
TABLE
  2
LTYPE
  5
5
330
0
100
AcDbSymbolTable
 70
     8
  0
LTYPE
  5
14
330
5
100
AcDbSymbolTableRecord
100
AcDbLinetypeTableRecord
  2
ByBlock
 70
     0
  3

 72
    65
 73
     0
 40
0.0
  0
LTYPE
  5
15
330
5
100
AcDbSymbolTableRecord
100
AcDbLinetypeTableRecord
  2
ByLayer
 70
     0
  3

 72
    65
 73
     0
 40
0.0
  0
LTYPE
  5
16
330
5
100
AcDbSymbolTableRecord
100
AcDbLinetypeTableRecord
  2
Continuous
 70
     0
  3
Solid line
 72
    65
 73
     0
 40
0.0
  0
LTYPE
  5
3F
330
5
100
AcDbSymbolTableRecord
100
AcDbLinetypeTableRecord
  2
DASHED
 70
     0
  3
Dashed
 72
    65
 73
     2
 40
15.0
 49
7.0
 74
     0
 49
-8.0
 74
     0
  0
LTYPE
  5
40
330
5
100
AcDbSymbolTableRecord
100
AcDbLinetypeTableRecord
  2
DOTTED
 70
     0
  3
Dotted
 72
    65
 73
     2
 40
1.0
 49
0.0
 74
     0
 49
-1.0
 74
     0
  0
LTYPE
  5
41
330
5
100
AcDbSymbolTableRecord
100
AcDbLinetypeTableRecord
  2
DOT_CENTER
 70
     0
  3
Dot_Center
 72
    65
 73
     4
 40
14.0
 49
12.0
 74
     0
 49
-1.0
 74
     0
 49
0.0
 74
     0
 49
-1.0
 74
     0
  0
LTYPE
  5
42
330
5
100
AcDbSymbolTableRecord
100
AcDbLinetypeTableRecord
  2
LONG_DASHED
 70
     0
  3
Long_Dashed
 72
    65
 73
     2
 40
15.0
 49
10.0
 74
     0
 49
-5.0
 74
     0
  0
LTYPE
  5
43
330
5
100
AcDbSymbolTableRecord
100
AcDbLinetypeTableRecord
  2
DASH_CENTER
 70
     0
  3
Dash_Center
 72
    65
 73
     4
 40
14.0
 49
11.0
 74
     0
 49
-1.0
 74
     0
 49
1.0
 74
     0
 49
-1.0
 74
     0
  0
LTYPE
  5
44
330
5
100
AcDbSymbolTableRecord
100
AcDbLinetypeTableRecord
  2
PHANTOM
 70
     0
  3
Phantom
 72
    65
 73
     6
 40
13.0
 49
10.0
 74
     0
 49
-1.0
 74
     0
 49
0.0
 74
     0
 49
-1.0
 74
     0
 49
0.0
 74
     0
 49
-1.0
 74
     0
  0
LTYPE
  5
45
330
5
100
AcDbSymbolTableRecord
100
AcDbLinetypeTableRecord
  2
CENTER_DASH_DASH
 70
     0
  3
Center_Dash_Dash
 72
    65
 73
     6
 40
14.0
 49
9.0
 74
     0
 49
-1.0
 74
     0
 49
1.0
 74
     0
 49
-1.0
 74
     0
 49
1.0
 74
     0
 49
-1.0
 74
     0
  0
ENDTAB
  0
TABLE
  2
LAYER
  5
2
330
0
100
AcDbSymbolTable
 70
     2
  0
LAYER
  5
10
330
2
100
AcDbSymbolTableRecord
100
AcDbLayerTableRecord
  2
0
 70
     0
 62
     7
  6
Continuous
370
    -3
390
F
  0
LAYER
  5
46
330
2
100
AcDbSymbolTableRecord
100
AcDbLayerTableRecord
  2
1
 70
     0
 62
     7
  6
Continuous
370
    -3
390
F
  0
ENDTAB
  0
TABLE
  2
STYLE
  5
3
330
0
100
AcDbSymbolTable
 70
     4
  0
STYLE
  5
11
330
3
100
AcDbSymbolTableRecord
100
AcDbTextStyleTableRecord
  2
Standard
 70
     0
 40
0.0
 41
1.0
 50
0.0
 71
     0
 42
0.2
  3
txt
  4

  0
STYLE
  5
9B
330
3
100
AcDbSymbolTableRecord
100
AcDbTextStyleTableRecord
  2
CONVERTER_11
 70
     0
 40
0.0
 41
1.38
 50
0.0
 71
     0
 42
0.2
  3
ARIAL.TTF
  4

  0
STYLE
  5
9D
330
3
100
AcDbSymbolTableRecord
100
AcDbTextStyleTableRecord
  2
CONVERTER_12
 70
     0
 40
0.0
 41
1.2
 50
0.0
 71
     0
 42
0.2
  3
ARIAL.TTF
  4

  0
STYLE
  5
139
330
3
100
AcDbSymbolTableRecord
100
AcDbTextStyleTableRecord
  2
CONVERTER_13
 70
     0
 40
0.0
 41
0.95
 50
0.0
 71
     0
 42
0.2
  3
simplex.shx
  4

  0
ENDTAB
  0
TABLE
  2
VIEW
  5
6
330
0
100
AcDbSymbolTable
 70
     0
  0
ENDTAB
  0
TABLE
  2
UCS
  5
7
330
0
100
AcDbSymbolTable
 70
     0
  0
ENDTAB
  0
TABLE
  2
APPID
  5
9
330
0
100
AcDbSymbolTable
 70
     1
  0
APPID
  5
12
330
9
100
AcDbSymbolTableRecord
100
AcDbRegAppTableRecord
  2
ACAD
 70
     0
  0
ENDTAB
  0
TABLE
  2
DIMSTYLE
  5
A
330
0
100
AcDbSymbolTable
 70
     5
100
AcDbDimStyleTable
  0
DIMSTYLE
105
27
330
A
100
AcDbSymbolTableRecord
100
AcDbDimStyleTableRecord
  2
Standard
 70
     0
178
     0
340
11
  0
DIMSTYLE
105
13D
102
{ACAD_REACTORS
330
13E
102
}
330
A
100
AcDbSymbolTableRecord
100
AcDbDimStyleTableRecord
  2
ME10_DIM_10
 70
     0
  3
ø<>
 41
1.5
 42
0.25
 44
0.5
 73
     0
 74
     0
 77
     1
 78
     8
140
1.5
147
1.0
172
     1
173
     1
174
     1
175
     1
176
     2
177
     2
271
     2
178
     4
271
     2
340
139
  0
DIMSTYLE
105
149
102
{ACAD_REACTORS
330
14A
102
}
330
A
100
AcDbSymbolTableRecord
100
AcDbDimStyleTableRecord
  2
ME10_DIM_11
 70
     0
 41
1.5
 42
0.25
 44
0.5
 73
     0
 74
     0
 77
     1
 78
     8
140
1.5
147
1.0
172
     1
173
     1
174
     1
175
     1
176
     2
177
     2
271
     2
178
     4
271
     2
340
139
  0
DIMSTYLE
105
155
102
{ACAD_REACTORS
330
156
102
}
330
A
100
AcDbSymbolTableRecord
100
AcDbDimStyleTableRecord
  2
ME10_DIM_12
 70
     0
 41
1.5
 42
0.25
 44
0.5
 73
     0
 74
     0
 77
     1
 78
     8
140
1.5
147
1.0
172
     1
173
     1
174
     1
175
     1
176
     2
177
     2
271
     2
178
     4
271
     2
340
139
  0
DIMSTYLE
105
160
102
{ACAD_REACTORS
330
161
102
}
330
A
100
AcDbSymbolTableRecord
100
AcDbDimStyleTableRecord
  2
ME10_DIM_13
 70
     0
 41
1.5
 42
0.25
 44
0.5
 73
     0
 74
     0
 77
     1
 78
     8
140
1.5
147
1.0
172
     1
173
     1
174
     1
175
     1
176
     2
177
     2
271
     2
178
     4
271
     2
340
139
  0
ENDTAB
  0
TABLE
  2
BLOCK_RECORD
  5
1
330
0
100
AcDbSymbolTable
 70
     7
  0
BLOCK_RECORD
  5
1F
330
1
100
AcDbSymbolTableRecord
100
AcDbBlockTableRecord
  2
*Model_Space
340
22
  0
BLOCK_RECORD
  5
1B
330
1
100
AcDbSymbolTableRecord
100
AcDbBlockTableRecord
  2
*Paper_Space
340
1E
  0
BLOCK_RECORD
  5
23
330
1
100
AcDbSymbolTableRecord
100
AcDbBlockTableRecord
  2
*Paper_Space0
340
26
  0
BLOCK_RECORD
  5
47
330
1
100
AcDbSymbolTableRecord
100
AcDbBlockTableRecord
  2
_formato_A4
340
0
102
{BLKREFS
331
4B
102
}
  0
BLOCK_RECORD
  5
4A
330
1
100
AcDbSymbolTableRecord
100
AcDbBlockTableRecord
  2
A4
340
0
102
{BLKREFS
331
4E
102
}
  0
BLOCK_RECORD
  5
131
330
1
100
AcDbSymbolTableRecord
100
AcDbBlockTableRecord
  2
*D3
340
0
  0
BLOCK_RECORD
  5
13F
330
1
100
AcDbSymbolTableRecord
100
AcDbBlockTableRecord
  2
*D4
340
0
  0
BLOCK_RECORD
  5
14B
330
1
100
AcDbSymbolTableRecord
100
AcDbBlockTableRecord
  2
*D5
340
0
  0
BLOCK_RECORD
  5
157
330
1
100
AcDbSymbolTableRecord
100
AcDbBlockTableRecord
  2
*D6
340
0
  0
ENDTAB
  0
ENDSEC
  0
SECTION
  2
BLOCKS
  0
BLOCK
  5
20
330
1F
100
AcDbEntity
  8
0
100
AcDbBlockBegin
  2
*Model_Space
 70
     0
 10
0.0
 20
0.0
 30
0.0
  3
*Model_Space
  1

  0
ENDBLK
  5
21
330
1F
100
AcDbEntity
  8
0
100
AcDbBlockEnd
  0
BLOCK
  5
1C
330
1B
100
AcDbEntity
 67
     1
  8
0
100
AcDbBlockBegin
  2
*Paper_Space
 70
     0
 10
0.0
 20
0.0
 30
0.0
  3
*Paper_Space
  1

  0
ENDBLK
  5
1D
330
1B
100
AcDbEntity
 67
     1
  8
0
100
AcDbBlockEnd
  0
BLOCK
  5
24
330
23
100
AcDbEntity
  8
0
100
AcDbBlockBegin
  2
*Paper_Space0
 70
     0
 10
0.0
 20
0.0
 30
0.0
  3
*Paper_Space0
  1

  0
ENDBLK
  5
25
330
23
100
AcDbEntity
  8
0
100
AcDbBlockEnd
  0
BLOCK
  5
48
330
47
100
AcDbEntity
  8
0
100
AcDbBlockBegin
  2
_formato_A4
 70
     0
 10
0.54587071449527
 20
0.0
 30
0.0
  3
_formato_A4
  1

  0
LINE
  5
4F
330
47
100
AcDbEntity
  8
1
  6
Continuous
 62
     7
100
AcDbLine
 10
-188.4541292855047
 20
14.99999999999989
 30
0.0
 11
-158.4541292855047
 21
14.99999999999989
 31
0.0
  0
LINE
  5
50
330
47
100
AcDbEntity
  8
1
  6
Continuous
 62
     7
100
AcDbLine
 10
-188.4541292855047
 20
20.0
 30
0.0
 11
-188.4541292855047
 21
4.99999999999989
 31
0.0
  0
LINE
  5
51
330
47
100
AcDbEntity
  8
1
  6
Continuous
 62
     7
100
AcDbLine
 10
-48.45412928550474
 20
20.0
 30
0.0
 11
-48.45412928550474
 21
5.0
 31
0.0
  0
LINE
  5
52
330
47
100
AcDbEntity
  8
1
  6
Continuous
 62
     7
100
AcDbLine
 10
-31.10152790801936
 20
20.0
 30
0.0
 11
-31.10152790801936
 21
5.0
 31
0.0
  0
LINE
  5
53
330
47
100
AcDbEntity
  8
1
  6
Continuous
 62
     7
100
AcDbLine
 10
-158.4541292855047
 20
20.0
 30
0.0
 11
-158.4541292855047
 21
5.0
 31
0.0
  0
LINE
  5
54
330
47
100
AcDbEntity
  8
1
  6
Continuous
 62
     7
100
AcDbLine
 10
-188.4541292855047
 20
9.99999999999983
 30
0.0
 11
-158.4541292855047
 21
9.99999999999983
 31
0.0
  0
LINE
  5
55
330
47
100
AcDbEntity
  8
1
  6
Continuous
 62
     7
100
AcDbLine
 10
-209.4541292855049
 20
148.4999999999998
 30
0.0
 11
-194.4541292855049
 21
148.4999999999998
 31
0.0
  0
LINE
  5
56
330
47
100
AcDbEntity
  8
1
  6
Continuous
 62
     7
100
AcDbLine
 10
0.54587071449527
 20
0.0
 30
0.0
 11
0.54587071449527
 21
297.0
 31
0.0
  0
LINE
  5
57
330
47
100
AcDbEntity
  8
1
  6
Continuous
 62
     7
100
AcDbLine
 10
-209.4541292855049
 20
0.0
 30
0.0
 11
0.54587071449527
 21
0.0
 31
0.0
  0
LINE
  5
58
330
47
100
AcDbEntity
  8
1
  6
Continuous
 62
     7
100
AcDbLine
 10
-209.4541292855049
 20
297.0
 30
0.0
 11
-209.4541292855049
 21
0.0
 31
0.0
  0
LINE
  5
59
330
47
100
AcDbEntity
  8
1
  6
Continuous
 62
     7
100
AcDbLine
 10
0.54587071449527
 20
297.0
 30
0.0
 11
-209.4541292855049
 21
297.0
 31
0.0
  0
LINE
  5
5A
330
47
100
AcDbEntity
  8
1
  6
Continuous
 62
     7
100
AcDbLine
 10
-4.45412928550473
 20
4.99999999999989
 30
0.0
 11
-4.45412928550473
 21
292.0
 31
0.0
  0
LINE
  5
5B
330
47
100
AcDbEntity
  8
1
  6
Continuous
 62
     7
100
AcDbLine
 10
-4.45412928550473
 20
292.0
 30
0.0
 11
-188.4541292855047
 21
292.0
 31
0.0
  0
LINE
  5
5C
330
47
100
AcDbEntity
  8
1
  6
Continuous
 62
     7
100
AcDbLine
 10
-188.4541292855047
 20
292.0
 30
0.0
 11
-188.4541292855047
 21
4.99999999999989
 31
0.0
  0
LINE
  5
5D
102
{ACAD_REACTORS
330
A5
102
}
330
47
100
AcDbEntity
  8
1
  6
Continuous
 62
     7
100
AcDbLine
 10
-15.4444952634288
 20
10.07749983983263
 30
0.0
 11
-15.4444952634288
 21
14.92250016016737
 31
0.0
  0
LINE
  5
5E
102
{ACAD_REACTORS
330
A2
102
}
330
47
100
AcDbEntity
  8
1
  6
Continuous
 62
     7
100
AcDbLine
 10
-16.77782859676206
 20
12.5
 30
0.0
 11
-16.77782859676206
 21
14.23205080756884
 31
0.0
  0
LINE
  5
5F
102
{ACAD_REACTORS
330
A2
102
}
330
47
100
AcDbEntity
  8
1
  6
Continuous
 62
     7
100
AcDbLine
 10
-16.77782859676206
 20
14.23205080756884
 30
0.0
 11
-17.63349102946478
 21
12.75
 31
0.0
  0
LINE
  5
60
102
{ACAD_REACTORS
330
A2
102
}
330
47
100
AcDbEntity
  8
1
  6
Continuous
 62
     7
100
AcDbLine
 10
-17.92216616405954
 20
12.75
 30
0.0
 11
-18.77782859676206
 21
14.23205080756884
 31
0.0
  0
LINE
  5
61
102
{ACAD_REACTORS
330
A2
102
}
330
47
100
AcDbEntity
  8
1
  6
Continuous
 62
     7
100
AcDbLine
 10
-18.77782859676206
 20
14.23205080756884
 30
0.0
 11
-18.77782859676206
 21
12.5
 31
0.0
  0
LINE
  5
62
330
47
100
AcDbEntity
  8
1
  6
Continuous
 62
     7
100
AcDbLine
 10
-26.19426387190362
 20
12.64436426434133
 30
0.0
 11
-17.77782859676206
 21
17.5
 31
0.0
  0
LINE
  5
63
330
47
100
AcDbEntity
  8
1
  6
Continuous
 62
     7
100
AcDbLine
 10
-17.77782859676206
 20
17.5
 30
0.0
 11
-9.36139332162071
 21
12.64436426434133
 31
0.0
  0
LINE
  5
64
330
47
100
AcDbEntity
  8
1
  6
Continuous
 62
     7
100
AcDbLine
 10
-9.36139332162071
 20
12.35563573565855
 30
0.0
 11
-17.77782859676206
 21
7.5
 31
0.0
  0
LINE
  5
65
330
47
100
AcDbEntity
  8
1
  6
Continuous
 62
     7
100
AcDbLine
 10
-17.77782859676206
 20
7.5
 30
0.0
 11
-26.19426387190362
 21
12.35563573565855
 31
0.0
  0
LINE
  5
66
102
{ACAD_REACTORS
330
A2
102
}
330
47
100
AcDbEntity
  8
1
  6
Continuous
 62
     7
100
AcDbLine
 10
-19.4444952634288
 20
12.5
 30
0.0
 11
-19.4444952634288
 21
15.73121731203457
 31
0.0
  0
LINE
  5
67
102
{ACAD_REACTORS
330
A2
102
}
330
47
100
AcDbEntity
  8
1
  6
Continuous
 62
     7
100
AcDbLine
 10
-18.95006157980544
 20
15.86370041827229
 30
0.0
 11
-17.77782859676206
 21
13.83333333333326
 31
0.0
  0
LINE
  5
68
102
{ACAD_REACTORS
330
A2
102
}
330
47
100
AcDbEntity
  8
1
  6
Continuous
 62
     7
100
AcDbLine
 10
-19.4444952634288
 20
12.5
 30
0.0
 11
-19.4444952634288
 21
10.84758507263291
 31
0.0
  0
LINE
  5
69
102
{ACAD_REACTORS
330
A2
102
}
330
47
100
AcDbEntity
  8
1
  6
Continuous
 62
     7
100
AcDbLine
 10
-18.77782859676206
 20
10.84758507263291
 30
0.0
 11
-18.77782859676206
 21
12.5
 31
0.0
  0
LINE
  5
6A
102
{ACAD_REACTORS
330
A2
102
}
330
47
100
AcDbEntity
  8
1
  6
Continuous
 62
     7
100
AcDbLine
 10
-16.77782859676206
 20
12.5
 30
0.0
 11
-16.77782859676206
 21
9.3082690706018
 31
0.0
  0
LINE
  5
6B
102
{ACAD_REACTORS
330
A2
102
}
330
47
100
AcDbEntity
  8
1
  6
Continuous
 62
     7
100
AcDbLine
 10
-16.11116193009553
 20
9.3082690706018
 30
0.0
 11
-16.11116193009553
 21
15.73121731203457
 31
0.0
  0
LINE
  5
6C
102
{ACAD_REACTORS
330
A2
102
}
330
47
100
AcDbEntity
  8
1
  6
Continuous
 62
     7
100
AcDbLine
 10
-16.60559561371889
 20
15.86370041827229
 30
0.0
 11
-17.77782859676206
 21
13.83333333333326
 31
0.0
  0
LINE
  5
6D
102
{ACAD_REACTORS
330
A3
102
}
330
47
100
AcDbEntity
  8
1
  6
Continuous
 62
     7
100
AcDbLine
 10
-20.77782859676206
 20
10.27002114803258
 30
0.0
 11
-20.77782859676206
 21
14.92250016016737
 31
0.0
  0
LINE
  5
6E
102
{ACAD_REACTORS
330
A3
102
}
330
47
100
AcDbEntity
  8
1
  6
Continuous
 62
     7
100
AcDbLine
 10
-20.11116193009553
 20
14.92250016016737
 30
0.0
 11
-20.11116193009553
 21
10.2700211480327
 31
0.0
  0
LINE
  5
6F
102
{ACAD_REACTORS
330
A3
102
}
330
47
100
AcDbEntity
  8
1
  6
Continuous
 62
     7
100
AcDbLine
 10
-20.11116193009553
 20
10.2700211480327
 30
0.0
 11
-17.94458777893221
 21
9.0200745223616
 31
0.0
  0
LINE
  5
70
102
{ACAD_REACTORS
330
A3
102
}
330
47
100
AcDbEntity
  8
1
  6
Continuous
 62
     7
100
AcDbLine
 10
-18.27773608125863
 20
8.44261746499581
 30
0.0
 11
-20.44431023242175
 21
9.69256409066691
 31
0.0
  0
LINE
  5
71
102
{ACAD_REACTORS
330
A4
102
}
330
47
100
AcDbEntity
  8
1
  6
Continuous
 62
     7
100
AcDbLine
 10
-21.4444952634288
 20
14.15326939093666
 30
0.0
 11
-21.4444952634288
 21
11.0392519172633
 31
0.0
  0
LINE
  5
72
102
{ACAD_REACTORS
330
A4
102
}
330
47
100
AcDbEntity
  8
1
  6
Continuous
 62
     7
100
AcDbLine
 10
-21.4444952634288
 20
11.0392519172633
 30
0.0
 11
-21.4444952634288
 21
10.84673060906323
 31
0.0
  0
LINE
  5
73
102
{ACAD_REACTORS
330
A4
102
}
330
47
100
AcDbEntity
  8
1
  6
Continuous
 62
     7
100
AcDbLine
 10
-22.11116193009553
 20
10.84673060906323
 30
0.0
 11
-22.11116193009553
 21
14.15326939093666
 31
0.0
  0
LINE
  5
74
102
{ACAD_REACTORS
330
A5
102
}
330
47
100
AcDbEntity
  8
1
  6
Continuous
 62
     7
100
AcDbLine
 10
-14.9445877789322
 20
15.21122868885027
 30
0.0
 11
-13.61125444559895
 21
14.44199791961944
 31
0.0
  0
LINE
  5
75
102
{ACAD_REACTORS
330
A5
102
}
330
47
100
AcDbEntity
  8
1
  6
Continuous
 62
     7
100
AcDbLine
 10
-13.94440274792538
 20
13.86454086225376
 30
0.0
 11
-14.77782859676205
 21
14.34536346735195
 31
0.0
  0
LINE
  5
76
102
{ACAD_REACTORS
330
A5
102
}
330
47
100
AcDbEntity
  8
1
  6
Continuous
 62
     7
100
AcDbLine
 10
-14.77782859676205
 20
14.34536346735195
 30
0.0
 11
-14.77782859676205
 21
12.83333333333326
 31
0.0
  0
LINE
  5
77
102
{ACAD_REACTORS
330
A5
102
}
330
47
100
AcDbEntity
  8
1
  6
Continuous
 62
     7
100
AcDbLine
 10
-14.77782859676205
 20
12.83333333333326
 30
0.0
 11
-13.77782859676205
 21
12.83333333333326
 31
0.0
  0
LINE
  5
78
102
{ACAD_REACTORS
330
A5
102
}
330
47
100
AcDbEntity
  8
1
  6
Continuous
 62
     7
100
AcDbLine
 10
-13.77782859676205
 20
12.16666666666663
 30
0.0
 11
-14.77782859676205
 21
12.16666666666663
 31
0.0
  0
LINE
  5
79
102
{ACAD_REACTORS
330
A5
102
}
330
47
100
AcDbEntity
  8
1
  6
Continuous
 62
     7
100
AcDbLine
 10
-14.77782859676205
 20
12.16666666666663
 30
0.0
 11
-14.77782859676205
 21
10.65463653264794
 31
0.0
  0
LINE
  5
7A
102
{ACAD_REACTORS
330
A5
102
}
330
47
100
AcDbEntity
  8
1
  6
Continuous
 62
     7
100
AcDbLine
 10
-14.77782859676205
 20
10.65463653264794
 30
0.0
 11
-13.94440274792538
 21
11.13545913774624
 31
0.0
  0
LINE
  5
7B
102
{ACAD_REACTORS
330
A5
102
}
330
47
100
AcDbEntity
  8
1
  6
Continuous
 62
     7
100
AcDbLine
 10
-13.61125444559895
 20
10.55800208038033
 30
0.0
 11
-14.9445877789322
 21
9.78877131114973
 31
0.0
  0
LINE
  5
7C
330
47
100
AcDbEntity
  8
1
  6
Continuous
 62
     7
100
AcDbLine
 10
-188.4541292855047
 20
25.0
 30
0.0
 11
-4.45412928550473
 21
25.0
 31
0.0
  0
LINE
  5
7D
330
47
100
AcDbEntity
  8
1
  6
Continuous
 62
     7
100
AcDbLine
 10
-181.4541292855047
 20
20.0
 30
0.0
 11
-181.4541292855047
 21
25.0
 31
0.0
  0
LINE
  5
7E
330
47
100
AcDbEntity
  8
1
  6
Continuous
 62
     7
100
AcDbLine
 10
-163.4541292855047
 20
20.0
 30
0.0
 11
-163.4541292855047
 21
25.0
 31
0.0
  0
LINE
  5
7F
330
47
100
AcDbEntity
  8
1
  6
Continuous
 62
     7
100
AcDbLine
 10
-188.4541292855047
 20
30.0
 30
0.0
 11
-4.45412928550473
 21
30.0
 31
0.0
  0
LINE
  5
80
330
47
100
AcDbEntity
  8
1
  6
Continuous
 62
     7
100
AcDbLine
 10
-181.4541292855047
 20
25.0
 30
0.0
 11
-181.4541292855047
 21
30.0
 31
0.0
  0
LINE
  5
81
330
47
100
AcDbEntity
  8
1
  6
Continuous
 62
     7
100
AcDbLine
 10
-163.4541292855047
 20
25.0
 30
0.0
 11
-163.4541292855047
 21
30.0
 31
0.0
  0
LINE
  5
82
330
47
100
AcDbEntity
  8
1
  6
Continuous
 62
     7
100
AcDbLine
 10
-188.4541292855047
 20
35.0
 30
0.0
 11
-4.45412928550473
 21
35.0
 31
0.0
  0
LINE
  5
83
330
47
100
AcDbEntity
  8
1
  6
Continuous
 62
     7
100
AcDbLine
 10
-181.4541292855047
 20
30.0
 30
0.0
 11
-181.4541292855047
 21
35.0
 31
0.0
  0
LINE
  5
84
330
47
100
AcDbEntity
  8
1
  6
Continuous
 62
     7
100
AcDbLine
 10
-163.4541292855047
 20
30.0
 30
0.0
 11
-163.4541292855047
 21
35.0
 31
0.0
  0
LINE
  5
85
330
47
100
AcDbEntity
  8
1
  6
Continuous
 62
     7
100
AcDbLine
 10
-188.4541292855047
 20
40.0
 30
0.0
 11
-4.45412928550473
 21
40.0
 31
0.0
  0
LINE
  5
86
330
47
100
AcDbEntity
  8
1
  6
Continuous
 62
     7
100
AcDbLine
 10
-181.4541292855047
 20
35.0
 30
0.0
 11
-181.4541292855047
 21
40.0
 31
0.0
  0
LINE
  5
87
330
47
100
AcDbEntity
  8
1
  6
Continuous
 62
     7
100
AcDbLine
 10
-163.4541292855047
 20
35.0
 30
0.0
 11
-163.4541292855047
 21
40.0
 31
0.0
  0
LINE
  5
88
330
47
100
AcDbEntity
  8
1
  6
Continuous
 62
     7
100
AcDbLine
 10
-188.4541292855047
 20
4.99999999999989
 30
0.0
 11
-4.45412928550473
 21
4.99999999999989
 31
0.0
  0
LINE
  5
89
330
47
100
AcDbEntity
  8
1
  6
Continuous
 62
     7
100
AcDbLine
 10
-188.4541292855047
 20
20.0
 30
0.0
 11
-4.45412928550473
 21
20.0
 31
0.0
  0
ARC
  5
8A
102
{ACAD_REACTORS
330
A2
102
}
330
47
100
AcDbEntity
  8
1
  6
Continuous
 62
     7
100
AcDbCircle
 10
-19.17952905095359
 20
15.73121731203457
 30
0.0
 40
0.2649662124753315
100
AcDbArc
 50
30.00000000001345
 51
180.0
  0
ARC
  5
8B
102
{ACAD_REACTORS
330
A2
102
}
330
47
100
AcDbEntity
  8
1
  6
Continuous
 62
     7
100
AcDbCircle
 10
-19.11116193009553
 20
10.84758507263291
 30
0.0
 40
0.3333333333332682
100
AcDbArc
 50
180.0
 51
0.0
  0
ARC
  5
8C
102
{ACAD_REACTORS
330
A2
102
}
330
47
100
AcDbEntity
  8
1
  6
Continuous
 62
     7
100
AcDbCircle
 10
-16.4444952634288
 20
9.3082690706018
 30
0.0
 40
0.3333333333332611
100
AcDbArc
 50
180.0
 51
0.0
  0
ARC
  5
8D
102
{ACAD_REACTORS
330
A2
102
}
330
47
100
AcDbEntity
  8
1
  6
Continuous
 62
     7
100
AcDbCircle
 10
-16.37612814257074
 20
15.73121731203457
 30
0.0
 40
0.2649662124752084
100
AcDbArc
 50
0.0
 51
149.9999999999866
  0
ARC
  5
8E
102
{ACAD_REACTORS
330
A3
102
}
330
47
100
AcDbEntity
  8
1
  6
Continuous
 62
     7
100
AcDbCircle
 10
-20.4444952634288
 20
14.92250016016737
 30
0.0
 40
0.3333333333332682
100
AcDbArc
 50
0.0
 51
180.0
  0
ARC
  5
8F
102
{ACAD_REACTORS
330
A3
102
}
330
47
100
AcDbEntity
  8
1
  6
Continuous
 62
     7
100
AcDbCircle
 10
-18.11116193009553
 20
8.7313459936787
 30
0.0
 40
0.3333333333333123
100
AcDbArc
 50
240.0183606311668
 51
60.01836063113403
  0
ARC
  5
90
102
{ACAD_REACTORS
330
A4
102
}
330
47
100
AcDbEntity
  8
1
  6
Continuous
 62
     7
100
AcDbCircle
 10
-21.77782859676206
 20
14.15326939093666
 30
0.0
 40
0.3333333333332611
100
AcDbArc
 50
0.0
 51
180.0
  0
ARC
  5
91
102
{ACAD_REACTORS
330
A4
102
}
330
47
100
AcDbEntity
  8
1
  6
Continuous
 62
     7
100
AcDbCircle
 10
-21.77782859676206
 20
10.84673060906323
 30
0.0
 40
0.3333333333334707
100
AcDbArc
 50
180.0
 51
0.0
  0
ARC
  5
92
102
{ACAD_REACTORS
330
A5
102
}
330
47
100
AcDbEntity
  8
1
  6
Continuous
 62
     7
100
AcDbCircle
 10
-13.77782859676205
 20
14.15326939093666
 30
0.0
 40
0.3333333333334314
100
AcDbArc
 50
240.0183606311331
 51
60.0183606311569
  0
ARC
  5
93
102
{ACAD_REACTORS
330
A5
102
}
330
47
100
AcDbEntity
  8
1
  6
Continuous
 62
     7
100
AcDbCircle
 10
-13.77782859676205
 20
12.5
 30
0.0
 40
0.3333333333333695
100
AcDbArc
 50
270.0
 51
90.0
  0
ARC
  5
94
102
{ACAD_REACTORS
330
A5
102
}
330
47
100
AcDbEntity
  8
1
  6
Continuous
 62
     7
100
AcDbCircle
 10
-13.77782859676205
 20
10.84673060906323
 30
0.0
 40
0.3333333333333154
100
AcDbArc
 50
299.9816393688329
 51
119.9816393688574
  0
ARC
  5
95
102
{ACAD_REACTORS
330
A2
102
}
330
47
100
AcDbEntity
  8
1
  6
Continuous
 62
     7
100
AcDbCircle
 10
-17.77782859676206
 20
12.83333333333326
 30
0.0
 40
0.1666666666666936
100
AcDbArc
 50
209.9999999999652
 51
330.0000000000006
  0
ARC
  5
96
102
{ACAD_REACTORS
330
A3
102
}
330
47
100
AcDbEntity
  8
1
  6
Continuous
 62
     7
100
AcDbCircle
 10
-20.11116193009553
 20
10.2700211480327
 30
0.0
 40
0.6666666666665293
100
AcDbArc
 50
180.0000000000104
 51
240.0183606311656
  0
ARC
  5
97
330
47
100
AcDbEntity
  8
1
  6
Continuous
 62
     7
100
AcDbCircle
 10
-26.11097679632195
 20
12.5
 30
0.0
 40
0.1666666666666141
100
AcDbArc
 50
119.9816393688888
 51
240.0183606311317
  0
ARC
  5
98
330
47
100
AcDbEntity
  8
1
  6
Continuous
 62
     7
100
AcDbCircle
 10
-9.44468039720215
 20
12.5
 30
0.0
 40
0.1666666666666018
100
AcDbArc
 50
299.9816393687996
 51
60.01836063118
  0
ARC
  5
99
102
{ACAD_REACTORS
330
A5
102
}
330
47
100
AcDbEntity
  8
1
  6
Continuous
 62
     7
100
AcDbCircle
 10
-15.11116193009553
 20
14.92250016016737
 30
0.0
 40
0.3333333333334299
100
AcDbArc
 50
60.01836063113301
 51
180.0
  0
ARC
  5
9A
102
{ACAD_REACTORS
330
A5
102
}
330
47
100
AcDbEntity
  8
1
  6
Continuous
 62
     7
100
AcDbCircle
 10
-15.11116193009553
 20
10.07749983983263
 30
0.0
 40
0.33333333333327
100
AcDbArc
 50
180.0
 51
299.981639368867
  0
MTEXT
  5
9C
330
47
100
AcDbEntity
  8
1
 62
     7
100
AcDbMText
 10
-173.4541292855047
 20
17.49999999999994
 30
0.0
 40
2.5
 41
0.0
 71
     5
 72
     1
  1
dimensions in mm
  7
CONVERTER_11
 73
     1
 44
0.60024009603842
  0
MTEXT
  5
9E
330
47
100
AcDbEntity
  8
1
 62
     7
100
AcDbMText
 10
-193.4541292855049
 20
151.4999999999998
 30
0.0
 40
4.0
 41
0.0
 71
     5
 72
     1
  1
Diritti riservati      All rights reserved
  7
CONVERTER_12
 11
0.0
 21
1.0
 31
0.0
 73
     1
 44
1.32052821128451
  0
MTEXT
  5
9F
330
47
100
AcDbEntity
  8
1
 62
     7
100
AcDbMText
 10
-187.4541292855047
 20
12.49999999999989
 30
0.0
 40
3.0
 41
0.0
 71
     4
 72
     1
  1
Date
  7
CONVERTER_12
 73
     1
 44
1.32052821128451
  0
MTEXT
  5
A0
330
47
100
AcDbEntity
  8
1
 62
     7
100
AcDbMText
 10
-187.4541292855047
 20
7.49999999999989
 30
0.0
 40
3.0
 41
0.0
 71
     4
 72
     1
  1
Sign.
  7
CONVERTER_12
 73
     1
 44
1.32052821128451
  0
MTEXT
  5
A1
330
47
100
AcDbEntity
  8
1
 62
     7
100
AcDbMText
 10
-39.77782859676206
 20
16.26063942075598
 30
0.0
 40
3.0
 41
0.0
 71
     5
 72
     1
  1
Scale
  7
CONVERTER_12
 73
     1
 44
1.32052821128451
  0
HATCH
  5
A2
330
47
100
AcDbEntity
  8
1
  6
Continuous
 62
     7
100
AcDbHatch
 10
0.0
 20
0.0
 30
0.0
210
0.0
220
0.0
230
1.0
  2
SOLID
 70
     1
 71
     1
 91
        1
 92
        1
 93
       16
 72
     2
 10
-19.17952905095359
 20
15.73121731203457
 40
0.2649662124753315
 50
30.00000000001345
 51
180.0
 73
     1
 72
     1
 10
-19.4444952634288
 20
15.73121731203457
 11
-19.4444952634288
 21
12.5
 72
     1
 10
-19.4444952634288
 20
12.5
 11
-19.4444952634288
 21
10.84758507263291
 72
     2
 10
-19.11116193009553
 20
10.84758507263291
 40
0.3333333333332682
 50
180.0
 51
360.0
 73
     1
 72
     1
 10
-18.77782859676206
 20
10.84758507263291
 11
-18.77782859676206
 21
12.5
 72
     1
 10
-18.77782859676206
 20
12.5
 11
-18.77782859676206
 21
14.23205080756884
 72
     1
 10
-18.77782859676206
 20
14.23205080756884
 11
-17.92216616405954
 21
12.75
 72
     2
 10
-17.77782859676206
 20
12.83333333333326
 40
0.1666666666666936
 50
209.9999999999652
 51
330.0000000000006
 73
     1
 72
     1
 10
-17.63349102946478
 20
12.75
 11
-16.77782859676206
 21
14.23205080756884
 72
     1
 10
-16.77782859676206
 20
14.23205080756884
 11
-16.77782859676206
 21
12.5
 72
     1
 10
-16.77782859676206
 20
12.5
 11
-16.77782859676206
 21
9.308269070601796
 72
     2
 10
-16.4444952634288
 20
9.308269070601796
 40
0.3333333333332611
 50
180.0
 51
360.0
 73
     1
 72
     1
 10
-16.11116193009553
 20
9.308269070601796
 11
-16.11116193009553
 21
15.73121731203457
 72
     2
 10
-16.37612814257074
 20
15.73121731203457
 40
0.2649662124752084
 50
0.0
 51
149.9999999999866
 73
     1
 72
     1
 10
-16.60559561371889
 20
15.86370041827229
 11
-17.77782859676206
 21
13.83333333333326
 72
     1
 10
-17.77782859676206
 20
13.83333333333326
 11
-18.95006157980544
 21
15.86370041827229
 97
       16
330
6C
330
8D
330
6B
330
8C
330
6A
330
5E
330
5F
330
95
330
60
330
61
330
69
330
8B
330
68
330
66
330
8A
330
67
 75
     0
 76
     1
 98
        1
 10
0.0
 20
0.0
  0
HATCH
  5
A3
330
47
100
AcDbEntity
  8
1
  6
Continuous
 62
     7
100
AcDbHatch
 10
0.0
 20
0.0
 30
0.0
210
0.0
220
0.0
230
1.0
  2
SOLID
 70
     1
 71
     1
 91
        1
 92
        1
 93
        7
 72
     1
 10
-20.11116193009553
 20
14.92250016016737
 11
-20.11116193009553
 21
10.2700211480327
 72
     1
 10
-20.11116193009553
 20
10.2700211480327
 11
-17.94458777893221
 21
9.020074522361597
 72
     2
 10
-18.11116193009553
 20
8.731345993678701
 40
0.3333333333333123
 50
299.981639368866
 51
479.9816393688332
 73
     0
 72
     1
 10
-18.27773608125863
 20
8.442617464995806
 11
-20.44431023242175
 21
9.692564090666906
 72
     2
 10
-20.11116193009553
 20
10.2700211480327
 40
0.6666666666665293
 50
119.9816393688344
 51
179.9999999999896
 73
     0
 72
     1
 10
-20.77782859676206
 20
10.27002114803258
 11
-20.77782859676206
 21
14.92250016016737
 72
     2
 10
-20.4444952634288
 20
14.92250016016737
 40
0.3333333333332682
 50
180.0
 51
360.0
 73
     0
 97
        7
330
6E
330
6F
330
8F
330
70
330
96
330
6D
330
8E
 75
     0
 76
     1
 98
        1
 10
0.0
 20
0.0
  0
HATCH
  5
A4
330
47
100
AcDbEntity
  8
1
  6
Continuous
 62
     7
100
AcDbHatch
 10
0.0
 20
0.0
 30
0.0
210
0.0
220
0.0
230
1.0
  2
SOLID
 70
     1
 71
     1
 91
        1
 92
        1
 93
        5
 72
     1
 10
-21.4444952634288
 20
14.15326939093666
 11
-21.4444952634288
 21
11.0392519172633
 72
     1
 10
-21.4444952634288
 20
11.0392519172633
 11
-21.4444952634288
 21
10.84673060906323
 72
     2
 10
-21.77782859676206
 20
10.84673060906323
 40
0.3333333333334707
 50
0.0
 51
180.0
 73
     0
 72
     1
 10
-22.11116193009553
 20
10.84673060906323
 11
-22.11116193009553
 21
14.15326939093666
 72
     2
 10
-21.77782859676206
 20
14.15326939093666
 40
0.3333333333332611
 50
180.0
 51
360.0
 73
     0
 97
        5
330
71
330
72
330
91
330
73
330
90
 75
     0
 76
     1
 98
        1
 10
0.0
 20
0.0
  0
HATCH
  5
A5
330
47
100
AcDbEntity
  8
1
  6
Continuous
 62
     7
100
AcDbHatch
 10
0.0
 20
0.0
 30
0.0
210
0.0
220
0.0
230
1.0
  2
SOLID
 70
     1
 71
     1
 91
        1
 92
        1
 93
       14
 72
     1
 10
-13.94440274792538
 20
13.86454086225376
 11
-14.77782859676205
 21
14.34536346735195
 72
     1
 10
-14.77782859676205
 20
14.34536346735195
 11
-14.77782859676205
 21
12.83333333333326
 72
     1
 10
-14.77782859676205
 20
12.83333333333326
 11
-13.77782859676205
 21
12.83333333333326
 72
     2
 10
-13.77782859676205
 20
12.5
 40
0.3333333333333695
 50
270.0
 51
450.0
 73
     0
 72
     1
 10
-13.77782859676205
 20
12.16666666666663
 11
-14.77782859676205
 21
12.16666666666663
 72
     1
 10
-14.77782859676205
 20
12.16666666666663
 11
-14.77782859676205
 21
10.65463653264794
 72
     1
 10
-14.77782859676205
 20
10.65463653264794
 11
-13.94440274792538
 21
11.13545913774624
 72
     2
 10
-13.77782859676205
 20
10.84673060906323
 40
0.3333333333333154
 50
240.0183606311426
 51
420.0183606311671
 73
     0
 72
     1
 10
-13.61125444559895
 20
10.55800208038033
 11
-14.9445877789322
 21
9.78877131114973
 72
     2
 10
-15.11116193009553
 20
10.07749983983263
 40
0.33333333333327
 50
60.018360631133
 51
180.0
 73
     0
 72
     1
 10
-15.4444952634288
 20
10.07749983983263
 11
-15.4444952634288
 21
14.92250016016737
 72
     2
 10
-15.11116193009553
 20
14.92250016016737
 40
0.3333333333334299
 50
180.0
 51
299.981639368867
 73
     0
 72
     1
 10
-14.9445877789322
 20
15.21122868885027
 11
-13.61125444559895
 21
14.44199791961944
 72
     2
 10
-13.77782859676205
 20
14.15326939093666
 40
0.3333333333334314
 50
299.9816393688431
 51
479.9816393688668
 73
     0
 97
       14
330
74
330
99
330
5D
330
9A
330
7B
330
94
330
7A
330
79
330
78
330
93
330
77
330
76
330
75
330
92
 75
     0
 76
     1
 98
        1
 10
0.0
 20
0.0
  0
ENDBLK
  5
49
330
47
100
AcDbEntity
  8
0
100
AcDbBlockEnd
  0
BLOCK
  5
4C
330
4A
100
AcDbEntity
  8
0
100
AcDbBlockBegin
  2
A4
 70
     0
 10
0.27293535724763
 20
0.0
 30
0.0
  3
A4
  1

  0
INSERT
  5
4B
330
4A
100
AcDbEntity
  8
1
100
AcDbBlockReference
  2
_formato_A4
 10
0.27293535724763
 20
0.0
 30
0.0
 41
0.5
 42
0.5
 43
0.5
  0
ENDBLK
  5
4D
330
4A
100
AcDbEntity
  8
0
100
AcDbBlockEnd
  0
BLOCK
  5
13B
330
131
100
AcDbEntity
  8
0
100
AcDbBlockBegin
  2
*D3
 70
     1
 10
0.0
 20
0.0
 30
0.0
  3
*D3
  1

  0
LINE
  5
132
330
131
100
AcDbEntity
  8
1
  6
Continuous
 62
     2
100
AcDbLine
 10
-46.97706464238365
 20
66.0713779936925
 30
0.0
 11
-38.67851996330204
 21
66.0713779936925
 31
0.0
  0
LINE
  5
133
330
131
100
AcDbEntity
  8
1
  6
Continuous
 62
     2
100
AcDbLine
 10
-49.4770646423836
 20
66.0713779936925
 30
0.0
 11
-46.97706464238365
 21
66.0713779936925
 31
0.0
  0
LINE
  5
134
330
131
100
AcDbEntity
  8
1
  6
Continuous
 62
     2
100
AcDbLine
 10
-52.4770646423836
 20
66.0713779936925
 30
0.0
 11
-49.4770646423836
 21
66.0713779936925
 31
0.0
  0
LINE
  5
135
330
131
100
AcDbEntity
  8
1
  6
Continuous
 62
     2
100
AcDbLine
 10
-46.97706464238365
 20
70.5161650581844
 30
0.0
 11
-46.97706464238365
 21
65.5713779936925
 31
0.0
  0
LINE
  5
136
330
131
100
AcDbEntity
  8
1
  6
Continuous
 62
     2
100
AcDbLine
 10
-49.4770646423836
 20
70.5161650581844
 30
0.0
 11
-49.4770646423836
 21
65.5713779936925
 31
0.0
  0
SOLID
  5
137
330
131
100
AcDbEntity
  8
1
 62
     2
100
AcDbTrace
 10
-50.9770646423836
 20
65.8738992473114
 30
0.0
 11
-50.9770646423836
 21
66.26885674007359
 31
0.0
 12
-49.4770646423836
 22
66.0713779936925
 32
0.0
 13
-49.4770646423836
 23
66.0713779936925
 33
0.0
  0
SOLID
  5
138
330
131
100
AcDbEntity
  8
1
 62
     2
100
AcDbTrace
 10
-45.47706464238365
 20
66.26885674007359
 30
0.0
 11
-45.47706464238365
 21
65.8738992473114
 31
0.0
 12
-46.97706464238365
 22
66.0713779936925
 32
0.0
 13
-46.97706464238365
 23
66.0713779936925
 33
0.0
  0
MTEXT
  5
13A
330
131
100
AcDbEntity
  8
1
 62
     4
100
AcDbMText
 10
-42.68351996329843
 20
67.22137501208836
 30
0.0
 40
1.5
 41
0.0
 71
     7
 72
     1
  1
\C4;\U+00f8\C4;2,5
  7
CONVERTER_13
 11
0.9999999999970619
 21
2.424068405545306E-6
 31
0.0
 73
     1
 44
0.60024009603842
  0
ENDBLK
  5
13C
330
131
100
AcDbEntity
  8
0
100
AcDbBlockEnd
  0
BLOCK
  5
147
330
13F
100
AcDbEntity
  8
0
100
AcDbBlockBegin
  2
*D4
 70
     1
 10
0.0
 20
0.0
 30
0.0
  3
*D4
  1

  0
LINE
  5
140
330
13F
100
AcDbEntity
  8
1
  6
Continuous
 62
     2
100
AcDbLine
 10
-44.82706464275235
 20
75.0580177635881
 30
0.0
 11
-37.77317317530974
 21
75.0580177635881
 31
0.0
  0
LINE
  5
141
330
13F
100
AcDbEntity
  8
1
  6
Continuous
 62
     2
100
AcDbLine
 10
-51.62706464275237
 20
75.0580177635881
 30
0.0
 11
-44.82706464275235
 21
75.0580177635881
 31
0.0
  0
LINE
  5
142
330
13F
100
AcDbEntity
  8
1
  6
Continuous
 62
     2
100
AcDbLine
 10
-44.82706464275235
 20
77.21616505818388
 30
0.0
 11
-44.82706464275235
 21
74.5580177635881
 31
0.0
  0
LINE
  5
143
330
13F
100
AcDbEntity
  8
1
  6
Continuous
 62
     2
100
AcDbLine
 10
-51.62706464275237
 20
77.21616505818388
 30
0.0
 11
-51.62706464275237
 21
74.5580177635881
 31
0.0
  0
SOLID
  5
144
330
13F
100
AcDbEntity
  8
1
 62
     2
100
AcDbTrace
 10
-50.12706464275237
 20
75.25549650996919
 30
0.0
 11
-50.12706464275237
 21
74.860539017207
 31
0.0
 12
-51.62706464275237
 22
75.0580177635881
 32
0.0
 13
-51.62706464275237
 23
75.0580177635881
 33
0.0
  0
SOLID
  5
145
330
13F
100
AcDbEntity
  8
1
 62
     2
100
AcDbTrace
 10
-46.32706464275235
 20
74.860539017207
 30
0.0
 11
-46.32706464275235
 21
75.25549650996919
 31
0.0
 12
-44.82706464275235
 22
75.0580177635881
 32
0.0
 13
-44.82706464275235
 23
75.0580177635881
 33
0.0
  0
MTEXT
  5
146
330
13F
100
AcDbEntity
  8
1
 62
     4
100
AcDbMText
 10
-40.54817317530974
 20
76.2080177635881
 30
0.0
 40
1.5
 41
0.0
 71
     7
 72
     1
  1
6,8
  7
CONVERTER_13
 11
0.9999999999970619
 21
2.424068405545306E-6
 31
0.0
 73
     1
 44
0.60024009603842
  0
ENDBLK
  5
148
330
13F
100
AcDbEntity
  8
0
100
AcDbBlockEnd
  0
BLOCK
  5
153
330
14B
100
AcDbEntity
  8
0
100
AcDbBlockBegin
  2
*D5
 70
     1
 10
0.0
 20
0.0
 30
0.0
  3
*D5
  1

  0
LINE
  5
14C
330
14B
100
AcDbEntity
  8
1
  6
Continuous
 62
     2
100
AcDbLine
 10
-44.62706464275237
 20
81.7003167239457
 30
0.0
 11
-37.82899081363214
 21
81.7003167239457
 31
0.0
  0
LINE
  5
14D
330
14B
100
AcDbEntity
  8
1
  6
Continuous
 62
     2
100
AcDbLine
 10
-51.82706464275235
 20
81.7003167239457
 30
0.0
 11
-44.62706464275237
 21
81.7003167239457
 31
0.0
  0
LINE
  5
14E
330
14B
100
AcDbEntity
  8
1
  6
Continuous
 62
     2
100
AcDbLine
 10
-44.62706464275237
 20
82.71616505818388
 30
0.0
 11
-44.62706464275237
 21
81.2003167239457
 31
0.0
  0
LINE
  5
14F
330
14B
100
AcDbEntity
  8
1
  6
Continuous
 62
     2
100
AcDbLine
 10
-51.82706464275235
 20
82.71616505818388
 30
0.0
 11
-51.82706464275235
 21
81.2003167239457
 31
0.0
  0
SOLID
  5
150
330
14B
100
AcDbEntity
  8
1
 62
     2
100
AcDbTrace
 10
-50.32706464275235
 20
81.8977954703268
 30
0.0
 11
-50.32706464275235
 21
81.50283797756461
 31
0.0
 12
-51.82706464275235
 22
81.7003167239457
 32
0.0
 13
-51.82706464275235
 23
81.7003167239457
 33
0.0
  0
SOLID
  5
151
330
14B
100
AcDbEntity
  8
1
 62
     2
100
AcDbTrace
 10
-46.12706464275237
 20
81.50283797756461
 30
0.0
 11
-46.12706464275237
 21
81.8977954703268
 31
0.0
 12
-44.62706464275237
 22
81.7003167239457
 32
0.0
 13
-44.62706464275237
 23
81.7003167239457
 33
0.0
  0
MTEXT
  5
152
330
14B
100
AcDbEntity
  8
1
 62
     4
100
AcDbMText
 10
-40.60399081363214
 20
82.85031672394571
 30
0.0
 40
1.5
 41
0.0
 71
     7
 72
     1
  1
7,2
  7
CONVERTER_13
 11
0.9999999999970619
 21
2.424068405545306E-6
 31
0.0
 73
     1
 44
0.60024009603842
  0
ENDBLK
  5
154
330
14B
100
AcDbEntity
  8
0
100
AcDbBlockEnd
  0
BLOCK
  5
15E
330
157
100
AcDbEntity
  8
0
100
AcDbBlockBegin
  2
*D6
 70
     1
 10
0.0
 20
0.0
 30
0.0
  3
*D6
  1

  0
LINE
  5
158
330
157
100
AcDbEntity
  8
1
  6
Continuous
 62
     2
100
AcDbLine
 10
-60.3422390187237
 20
90.26616505818377
 30
0.0
 11
-60.3422390187237
 21
72.96616505818388
 31
0.0
  0
LINE
  5
159
330
157
100
AcDbEntity
  8
1
  6
Continuous
 62
     2
100
AcDbLine
 10
-51.22706464275232
 20
72.96616505818388
 30
0.0
 11
-60.8422390187237
 21
72.96616505818388
 31
0.0
  0
LINE
  5
15A
330
157
100
AcDbEntity
  8
1
  6
Continuous
 62
     2
100
AcDbLine
 10
-51.82706464275235
 20
90.26616505818377
 30
0.0
 11
-60.8422390187237
 21
90.26616505818377
 31
0.0
  0
SOLID
  5
15B
330
157
100
AcDbEntity
  8
1
 62
     2
100
AcDbTrace
 10
-60.1447602723426
 20
88.76616505818377
 30
0.0
 11
-60.53971776510479
 21
88.76616505818377
 31
0.0
 12
-60.3422390187237
 22
90.26616505818377
 32
0.0
 13
-60.3422390187237
 23
90.26616505818377
 33
0.0
  0
SOLID
  5
15C
330
157
100
AcDbEntity
  8
1
 62
     2
100
AcDbTrace
 10
-60.53971776510479
 20
74.46616505818388
 30
0.0
 11
-60.1447602723426
 21
74.46616505818388
 31
0.0
 12
-60.3422390187237
 22
72.96616505818388
 32
0.0
 13
-60.3422390187237
 23
72.96616505818388
 33
0.0
  0
MTEXT
  5
15D
330
157
100
AcDbEntity
  8
1
 62
     4
100
AcDbMText
 10
-61.4922390187237
 20
79.77866505818382
 30
0.0
 40
1.5
 41
0.0
 71
     7
 72
     1
  1
17,3
  7
CONVERTER_13
 11
0.0
 21
1.0
 31
0.0
 73
     1
 44
0.60024009603842
  0
ENDBLK
  5
15F
330
157
100
AcDbEntity
  8
0
100
AcDbBlockEnd
  0
ENDSEC
  0
SECTION
  2
ENTITIES
  0
INSERT
  5
4E
330
1F
100
AcDbEntity
  8
0
100
AcDbBlockReference
  2
A4
 10
0.27293535724763
 20
0.0
 30
0.0
  0
LINE
  5
A6
330
1F
100
AcDbEntity
  8
0
  6
Continuous
 62
     7
100
AcDbLine
 10
-16.61724157272832
 20
134.9604343009278
 30
0.0
 11
-8.8390669796763
 21
131.0713470044018
 31
0.0
  0
LINE
  5
A7
330
1F
100
AcDbEntity
  8
0
  6
Continuous
 62
     7
100
AcDbLine
 10
-8.8615091181845
 20
125.9505760528195
 30
0.0
 11
-11.66749410442249
 21
124.5475835597005
 31
0.0
  0
LINE
  5
A8
330
1F
100
AcDbEntity
  8
0
  6
Continuous
 62
     7
100
AcDbLine
 10
-12.02104749501575
 20
124.8038195662961
 30
0.0
 11
-12.02104749501575
 21
128.6143313429476
 31
0.0
  0
LINE
  5
A9
330
1F
100
AcDbEntity
  8
0
  6
Continuous
 62
     2
100
AcDbLine
 10
-16.1929775040164
 20
135.1725663352838
 30
0.0
 11
-20.29419683489837
 21
137.2231760007248
 31
0.0
  0
LINE
  5
AA
330
1F
100
AcDbEntity
  8
0
  6
Continuous
 62
     7
100
AcDbLine
 10
-20.22348615677971
 20
132.2912866051177
 30
0.0
 11
-17.63493120803787
 21
130.9970091307467
 31
0.0
  0
LINE
  5
AB
330
1F
100
AcDbEntity
  8
0
  6
Continuous
 62
     7
100
AcDbLine
 10
-17.63493120803787
 20
130.3041888077192
 30
0.0
 11
-17.63493120803787
 21
130.9970091307467
 31
0.0
  0
LINE
  5
AC
330
1F
100
AcDbEntity
  8
0
  6
Continuous
 62
     7
100
AcDbLine
 10
-19.51637937559316
 20
131.2449128914968
 30
0.0
 11
-17.63493120803787
 21
130.3041888077192
 31
0.0
  0
LINE
  5
AD
330
1F
100
AcDbEntity
  8
0
  6
Continuous
 62
     7
100
AcDbLine
 10
-19.6931560708898
 20
131.1565245438485
 30
0.0
 11
-18.1178941211824
 21
130.3688935689948
 31
0.0
  0
LINE
  5
AE
330
1F
100
AcDbEntity
  8
0
  6
Continuous
 62
     7
100
AcDbLine
 10
-19.6931560708898
 20
131.1565245438485
 30
0.0
 11
-19.51637937559316
 21
131.2449128914968
 31
0.0
  0
LINE
  5
AF
330
1F
100
AcDbEntity
  8
0
  6
Continuous
 62
     7
100
AcDbLine
 10
-18.1178941211824
 20
130.3688935689948
 30
0.0
 11
-17.63493120803787
 21
130.3041888077192
 31
0.0
  0
LINE
  5
B0
330
1F
100
AcDbEntity
  8
0
  6
Continuous
 62
     7
100
AcDbLine
 10
-19.79922208806778
 20
132.5034186394736
 30
0.0
 11
-19.09211530688124
 21
133.7229974338513
 31
0.0
  0
LINE
  5
B1
330
1F
100
AcDbEntity
  8
0
  6
Continuous
 62
     7
100
AcDbLine
 10
-19.51637937559316
 20
133.5108653994953
 30
0.0
 11
-19.09211530688124
 21
133.7229974338513
 31
0.0
  0
LINE
  5
B2
330
1F
100
AcDbEntity
  8
0
  6
Continuous
 62
     7
100
AcDbLine
 10
-20.22348615677971
 20
132.2912866051177
 30
0.0
 11
-19.79922208806778
 21
132.5034186394736
 31
0.0
  0
LINE
  5
B3
330
1F
100
AcDbEntity
  8
0
  6
Continuous
 62
     7
100
AcDbLine
 10
-16.61724157272832
 20
134.9604343009278
 30
0.0
 11
-16.1929775040164
 21
135.1725663352838
 31
0.0
  0
LINE
  5
B4
330
1F
100
AcDbEntity
  8
0
  6
Continuous
 62
     7
100
AcDbLine
 10
-16.475820216491
 20
130.8417177036852
 30
0.0
 11
-17.63493120803787
 21
130.9970091307467
 31
0.0
  0
LINE
  5
B5
330
1F
100
AcDbEntity
  8
0
  6
Continuous
 62
     2
100
AcDbLine
 10
-23.61759870647514
 20
135.5614750649364
 30
0.0
 11
-19.51637937559316
 21
133.5108653994953
 31
0.0
  0
LINE
  5
B6
330
1F
100
AcDbEntity
  8
0
  6
Continuous
 62
     7
100
AcDbLine
 10
-11.89110090217247
 20
124.5333826660928
 30
0.0
 11
-15.00237073939329
 21
126.0890175847032
 31
0.0
  0
LINE
  5
B7
330
1F
100
AcDbEntity
  8
0
  6
Continuous
 62
     7
100
AcDbLine
 10
-12.89731577408804
 20
133.3658168477217
 30
0.0
 11
-15.48587072282984
 21
134.6600943220926
 31
0.0
  0
LINE
  5
B8
330
1F
100
AcDbEntity
  8
0
  6
Continuous
 62
     7
100
AcDbLine
 10
-15.59193674000784
 20
125.6966320791286
 30
0.0
 11
-15.59193674000784
 21
129.9401565576724
 31
0.0
  0
LINE
  5
B9
330
1F
100
AcDbEntity
  8
0
  6
Continuous
 62
     7
100
AcDbLine
 10
-15.13231733223657
 20
130.169966261558
 30
0.0
 11
-15.13231733223657
 21
126.3594544849065
 31
0.0
  0
LINE
  5
BA
330
1F
100
AcDbEntity
  8
0
  6
Continuous
 62
     7
100
AcDbLine
 10
-15.13231733223657
 20
130.169966261558
 30
0.0
 11
-15.59193674000784
 21
129.9401565576724
 31
0.0
  0
LINE
  5
BB
330
1F
100
AcDbEntity
  8
0
  6
Continuous
 62
     2
100
AcDbLine
 10
-12.02104749501575
 20
124.8038195662961
 30
0.0
 11
-15.13231733223657
 21
126.3594544849065
 31
0.0
  0
LINE
  5
BC
330
1F
100
AcDbEntity
  8
0
  6
Continuous
 62
     7
100
AcDbLine
 10
-15.59193674000784
 20
125.6966320791286
 30
0.0
 11
-16.22833284307572
 21
126.0148301306626
 31
0.0
  0
LINE
  5
BD
330
1F
100
AcDbEntity
  8
0
  6
Continuous
 62
     7
100
AcDbLine
 10
-17.63493120803787
 20
128.312330379015
 30
0.0
 11
-17.63493120803787
 21
127.6195100559874
 31
0.0
  0
LINE
  5
BE
330
1F
100
AcDbEntity
  8
0
  6
Continuous
 62
     7
100
AcDbLine
 10
-15.59193674000784
 20
125.6966320791286
 30
0.0
 11
-14.90476823412601
 21
126.0402163320695
 31
0.0
  0
LINE
  5
BF
330
1F
100
AcDbEntity
  8
0
  6
Continuous
 62
     7
100
AcDbLine
 10
-9.07988592277835
 20
126.0020021815235
 30
0.0
 11
-11.7577164475436
 21
127.3409174439061
 31
0.0
  0
LINE
  5
C0
330
1F
100
AcDbEntity
  8
0
  6
Continuous
 62
     7
100
AcDbLine
 10
-7.96185193402847
 20
128.2380701590232
 30
0.0
 11
-10.63967393988085
 21
129.5769811619495
 31
0.0
  0
LINE
  5
C1
330
1F
100
AcDbEntity
  8
0
  6
Continuous
 62
     7
100
AcDbLine
 10
-12.02104749501575
 20
128.6143313429476
 30
0.0
 11
-11.31394071382923
 21
129.8339101373253
 31
0.0
  0
LINE
  5
C2
330
1F
100
AcDbEntity
  8
0
  6
Continuous
 62
     7
100
AcDbLine
 10
-8.13196019848975
 20
130.5588749912106
 30
0.0
 11
-8.13196019848975
 21
128.3231242912539
 31
0.0
  0
LINE
  5
C3
330
1F
100
AcDbEntity
  8
0
  6
Continuous
 62
     7
100
AcDbLine
 10
-11.31394071382923
 20
129.8339101373253
 30
0.0
 11
-8.8390669796763
 21
131.0713470044018
 31
0.0
  0
LINE
  5
C4
330
1F
100
AcDbEntity
  8
0
  6
Continuous
 62
     7
100
AcDbLine
 10
-8.8390669796763
 20
131.0713470044018
 30
0.0
 11
-8.13196019848975
 21
130.5588749912106
 31
0.0
  0
LINE
  5
C5
330
1F
100
AcDbEntity
  8
0
  6
Continuous
 62
     7
100
AcDbLine
 10
-24.93334573137497
 20
138.4008680411629
 30
0.0
 11
-21.66443409179962
 21
136.7664122213752
 31
0.0
  0
LINE
  5
C6
330
1F
100
AcDbEntity
  8
0
  6
Continuous
 62
     7
100
AcDbLine
 10
-27.39302050662474
 20
133.4815184906634
 30
0.0
 11
-24.32470548766169
 21
131.9473609811818
 31
0.0
  0
LINE
  5
C7
330
1F
100
AcDbEntity
  8
0
  6
Continuous
 62
     2
100
AcDbLine
 10
-24.32470548766169
 20
134.3418962705587
 30
0.0
 11
-20.22348615677971
 21
132.2912866051177
 31
0.0
  0
LINE
  5
C8
330
1F
100
AcDbEntity
  8
0
  6
Continuous
 62
     7
100
AcDbLine
 10
-24.32470548766169
 20
130.9643971957993
 30
0.0
 11
-24.32470548766169
 21
134.3418962705587
 31
0.0
  0
LINE
  5
C9
330
1F
100
AcDbEntity
  8
0
  6
Continuous
 62
     7
100
AcDbLine
 10
-20.29419683489837
 20
137.2231760007248
 30
0.0
 11
-23.61759870647514
 21
135.5614750649364
 31
0.0
  0
LINE
  5
CA
330
1F
100
AcDbEntity
  8
0
  6
Continuous
 62
     7
100
AcDbLine
 10
-27.31576717233394
 20
137.5074347862413
 30
0.0
 11
-26.55209184865245
 21
138.0801912790024
 31
0.0
  0
LINE
  5
CB
330
1F
100
AcDbEntity
  8
0
  6
Continuous
 62
     7
100
AcDbLine
 10
-28.10772676726286
 20
135.9235155963835
 30
0.0
 11
-28.10772676726286
 21
134.9689214417816
 31
0.0
  0
LINE
  5
CC
330
1F
100
AcDbEntity
  8
0
  6
Continuous
 62
     7
100
AcDbLine
 10
-11.31394071382923
 20
129.8339101373253
 30
0.0
 11
-19.09211530688124
 21
133.7229974338513
 31
0.0
  0
LINE
  5
CD
330
1F
100
AcDbEntity
  8
0
  6
Continuous
 62
     7
100
AcDbLine
 10
-16.475820216491
 20
130.8417177036852
 30
0.0
 11
-19.79922208806778
 21
132.5034186394736
 31
0.0
  0
LINE
  5
CE
330
1F
100
AcDbEntity
  8
0
  6
Continuous
 62
     7
100
AcDbLine
 10
-15.76871343530448
 20
130.4881643130919
 30
0.0
 11
-15.68032508765614
 21
130.6406116623892
 31
0.0
  0
LINE
  5
CF
330
1F
100
AcDbEntity
  8
0
  6
Continuous
 62
     7
100
AcDbLine
 10
-15.13231733223657
 20
130.169966261558
 30
0.0
 11
-15.76871343530448
 21
130.4881643130919
 31
0.0
  0
LINE
  5
D0
330
1F
100
AcDbEntity
  8
0
  6
Continuous
 62
     7
100
AcDbLine
 10
-19.6931560708898
 20
129.1646661151443
 30
0.0
 11
-19.6931560708898
 21
131.1565245438485
 31
0.0
  0
LINE
  5
D1
330
1F
100
AcDbEntity
  8
0
  6
Continuous
 62
     7
100
AcDbLine
 10
-15.13231733223657
 20
130.169966261558
 30
0.0
 11
-12.02104749501575
 21
128.6143313429476
 31
0.0
  0
LINE
  5
D2
330
1F
100
AcDbEntity
  8
0
  6
Continuous
 62
     7
100
AcDbLine
 10
-16.22833284307572
 20
130.2583546092063
 30
0.0
 11
-15.59193674000784
 21
129.9401565576724
 31
0.0
  0
LINE
  5
D3
330
1F
100
AcDbEntity
  8
0
  6
Continuous
 62
     7
100
AcDbLine
 10
-10.78361062793931
 20
132.3443196137067
 30
0.0
 11
-10.78361062793931
 21
132.0436188285333
 31
0.0
  0
LINE
  5
D4
330
1F
100
AcDbEntity
  8
0
  6
Continuous
 62
     7
100
AcDbLine
 10
-10.78361062793931
 20
132.3443196137067
 30
0.0
 11
-11.42000673100719
 21
132.6625176652406
 31
0.0
  0
LINE
  5
D5
330
1F
100
AcDbEntity
  8
0
  6
Continuous
 62
     7
100
AcDbLine
 10
-11.72070751618057
 20
132.5121672726539
 30
0.0
 11
-11.42000673100719
 21
132.6625176652406
 31
0.0
  0
LINE
  5
D6
330
1F
100
AcDbEntity
  8
0
  6
Continuous
 62
     7
100
AcDbLine
 10
-10.78361062793931
 20
132.3443196137067
 30
0.0
 11
-11.08431141311266
 21
132.19396922112
 31
0.0
  0
LINE
  5
D7
330
1F
100
AcDbEntity
  8
0
  6
Continuous
 62
     7
100
AcDbLine
 10
-12.89731577408804
 20
133.3658168477217
 30
0.0
 11
-12.70306942597553
 21
133.0033482275514
 31
0.0
  0
LINE
  5
D8
330
1F
100
AcDbEntity
  8
0
  6
Continuous
 62
     7
100
AcDbLine
 10
-24.0648123019751
 20
130.4235233953927
 30
0.0
 11
-16.92488982020119
 21
126.8535621545057
 31
0.0
  0
LINE
  5
D9
330
1F
100
AcDbEntity
  8
0
  6
Continuous
 62
     7
100
AcDbLine
 10
-15.74576390851644
 20
135.2009681224992
 30
0.0
 11
-19.84698323939841
 21
137.2515777879402
 31
0.0
  0
LINE
  5
DA
330
1F
100
AcDbEntity
  8
0
  6
Continuous
 62
     7
100
AcDbLine
 10
-15.75121616894387
 20
134.5274215990356
 30
0.0
 11
-15.48587072282984
 21
134.6600943220926
 31
0.0
  0
LINE
  5
DB
330
1F
100
AcDbEntity
  8
0
  6
Continuous
 62
     7
100
AcDbLine
 10
-16.22833284307572
 20
130.2583546092063
 30
0.0
 11
-16.23433875991876
 21
126.5992311241191
 31
0.0
  0
LINE
  5
DC
330
1F
100
AcDbEntity
  8
0
  6
Continuous
 62
     7
100
AcDbLine
 10
-16.23433875991876
 20
126.5992311241191
 30
0.0
 11
-16.22833284307572
 21
126.0148301306626
 31
0.0
  0
LINE
  5
DD
330
1F
100
AcDbEntity
  8
0
  6
Continuous
 62
     7
100
AcDbLine
 10
-16.23433875991874
 20
130.9176184985205
 30
0.0
 11
-16.22833284307572
 21
130.2583546092063
 31
0.0
  0
LINE
  5
DE
330
1F
100
AcDbEntity
  8
0
  6
Continuous
 62
     2
100
AcDbLine
 10
-24.32470548766169
 20
130.9643971957993
 30
0.0
 11
-17.63493120803787
 21
127.6195100559874
 31
0.0
  0
LINE
  5
DF
330
1F
100
AcDbEntity
  8
0
  6
Continuous
 62
     7
100
AcDbLine
 10
-15.68032508765614
 20
130.6406116623892
 30
0.0
 11
-16.23433875991874
 21
130.9176184985205
 31
0.0
  0
LINE
  5
E0
330
1F
100
AcDbEntity
  8
0
  6
Continuous
 62
     7
100
AcDbLine
 10
-16.23433875991874
 20
130.9176184985205
 30
0.0
 11
-16.475820216491
 21
130.8417177036852
 31
0.0
  0
LINE
  5
E1
330
1F
100
AcDbEntity
  8
0
  6
Continuous
 62
     7
100
AcDbLine
 10
-18.1178941211824
 20
128.3770351402906
 30
0.0
 11
-18.1178941211824
 21
130.3688935689948
 31
0.0
  0
LINE
  5
E2
330
1F
100
AcDbEntity
  8
0
  6
Continuous
 62
     7
100
AcDbLine
 10
-18.1178941211824
 20
128.3770351402906
 30
0.0
 11
-19.6931560708898
 21
129.1646661151443
 31
0.0
  0
LINE
  5
E3
330
1F
100
AcDbEntity
  8
0
  6
Continuous
 62
     7
100
AcDbLine
 10
-17.63493120803787
 20
128.312330379015
 30
0.0
 11
-18.1178941211824
 21
128.3770351402906
 31
0.0
  0
LINE
  5
E4
330
1F
100
AcDbEntity
  8
0
  6
Continuous
 62
     7
100
AcDbLine
 10
-16.22833284307572
 20
130.2583546092063
 30
0.0
 11
-15.76871343530448
 21
130.4881643130919
 31
0.0
  0
LINE
  5
E5
330
1F
100
AcDbEntity
  8
0
  6
Continuous
 62
     7
100
AcDbLine
 10
-28.96655197405467
 20
138.9081252776904
 30
0.0
 11
-26.85552869986299
 21
137.8526136405945
 31
0.0
  0
LINE
  5
E6
330
1F
100
AcDbEntity
  8
0
  6
Continuous
 62
     7
100
AcDbLine
 10
-30.21875004145456
 20
136.4037291428907
 30
0.0
 11
-28.10772676726286
 21
135.3482175057948
 31
0.0
  0
LINE
  5
E7
330
1F
100
AcDbEntity
  8
0
  6
Continuous
 62
     7
100
AcDbLine
 10
-46.47706464201499
 20
83.96616505818388
 30
0.0
 11
-44.87706464201502
 21
83.96616505818388
 31
0.0
  0
LINE
  5
E8
330
1F
100
AcDbEntity
  8
0
  6
Continuous
 62
     7
100
AcDbLine
 10
-49.97706464201497
 20
83.96616505818388
 30
0.0
 11
-51.577064642015
 21
83.96616505818388
 31
0.0
  0
LINE
  5
E9
330
1F
100
AcDbEntity
  8
0
  6
Continuous
 62
     7
100
AcDbLine
 10
-46.47706464201499
 20
83.96616505818388
 30
0.0
 11
-46.47706464201499
 21
72.96616505818388
 31
0.0
  0
LINE
  5
EA
330
1F
100
AcDbEntity
  8
0
  6
Continuous
 62
     7
100
AcDbLine
 10
-49.97706464201497
 20
72.96616505818388
 30
0.0
 11
-49.97706464201497
 21
83.96616505818388
 31
0.0
  0
LINE
  5
EB
330
1F
100
AcDbEntity
  8
0
  6
Continuous
 62
     7
100
AcDbLine
 10
-50.97706464275233
 20
72.96616505818388
 30
0.0
 11
-50.47706464275233
 21
72.96616505818388
 31
0.0
  0
LINE
  5
EC
330
1F
100
AcDbEntity
  8
0
  6
Continuous
 62
     7
100
AcDbLine
 10
-49.4770646423836
 20
70.7661650581844
 30
0.0
 11
-46.97706464238365
 21
70.7661650581844
 31
0.0
  0
LINE
  5
ED
330
1F
100
AcDbEntity
  8
0
  6
Continuous
 62
     7
100
AcDbLine
 10
-45.87706464275237
 20
90.26616505818377
 30
0.0
 11
-50.57706464275235
 21
90.26616505818377
 31
0.0
  0
LINE
  5
EE
330
1F
100
AcDbEntity
  8
0
  6
Continuous
 62
     7
100
AcDbLine
 10
-50.47706464275233
 20
72.96616505818388
 30
0.0
 11
-45.97706464275235
 21
72.96616505818388
 31
0.0
  0
LINE
  5
EF
330
1F
100
AcDbEntity
  8
0
  6
Continuous
 62
     7
100
AcDbLine
 10
-49.4770646423836
 20
70.7661650581844
 30
0.0
 11
-49.47706464238365
 21
72.96616505818388
 31
0.0
  0
LINE
  5
F0
330
1F
100
AcDbEntity
  8
0
  6
Continuous
 62
     7
100
AcDbLine
 10
-51.57706464275235
 20
80.30539554272518
 30
0.0
 11
-51.57706464275235
 21
90.26616505818377
 31
0.0
  0
LINE
  5
F1
330
1F
100
AcDbEntity
  8
0
  6
Continuous
 62
     7
100
AcDbLine
 10
-51.57706464275235
 20
90.26616505818377
 30
0.0
 11
-50.57706464275235
 21
90.26616505818377
 31
0.0
  0
LINE
  5
F2
330
1F
100
AcDbEntity
  8
0
  6
Continuous
 62
     7
100
AcDbLine
 10
-50.47706464275233
 20
77.46616505818388
 30
0.0
 11
-51.62706464275237
 21
77.46616505818388
 31
0.0
  0
LINE
  5
F3
330
1F
100
AcDbEntity
  8
0
  6
Continuous
 62
     7
100
AcDbLine
 10
-51.62706464275237
 20
78.46616505818388
 30
0.0
 11
-51.62706464275237
 21
77.46616505818388
 31
0.0
  0
LINE
  5
F4
330
1F
100
AcDbEntity
  8
0
  6
Continuous
 62
     7
100
AcDbLine
 10
-51.62706464275237
 20
78.46616505818388
 30
0.0
 11
-50.57706464275235
 21
78.46616505818388
 31
0.0
  0
LINE
  5
F5
330
1F
100
AcDbEntity
  8
0
  6
Continuous
 62
     7
100
AcDbLine
 10
-51.82706464275235
 20
80.7384082446175
 30
0.0
 11
-51.57706464275235
 21
80.30539554272518
 31
0.0
  0
LINE
  5
F6
330
1F
100
AcDbEntity
  8
0
  6
Continuous
 62
     7
100
AcDbLine
 10
-51.82706464275235
 20
82.96616505818388
 30
0.0
 11
-51.82706464275235
 21
80.7384082446175
 31
0.0
  0
LINE
  5
F7
330
1F
100
AcDbEntity
  8
0
  6
Continuous
 62
     7
100
AcDbLine
 10
-51.82706464275235
 20
82.96616505818388
 30
0.0
 11
-51.57706464275235
 21
82.96616505818388
 31
0.0
  0
LINE
  5
F8
330
1F
100
AcDbEntity
  8
0
  6
Continuous
 62
     7
100
AcDbLine
 10
-50.85206464275233
 20
78.46616505818388
 30
0.0
 11
-50.85206464275233
 21
79.0496587072377
 31
0.0
  0
LINE
  5
F9
330
1F
100
AcDbEntity
  8
0
  6
Continuous
 62
     7
100
AcDbLine
 10
-50.97706464275233
 20
72.96616505818388
 30
0.0
 11
-50.97706464275233
 21
77.46616505818388
 31
0.0
  0
LINE
  5
FA
330
1F
100
AcDbEntity
  8
0
  6
Continuous
 62
     7
100
AcDbLine
 10
-51.57706464275235
 20
80.30539554272518
 30
0.0
 11
-50.85206464275233
 21
79.0496587072377
 31
0.0
  0
LINE
  5
FB
330
1F
100
AcDbEntity
  8
0
  6
Continuous
 62
     7
100
AcDbLine
 10
-44.62706464275237
 20
80.73840824461728
 30
0.0
 11
-44.62706464275237
 21
82.96616505818388
 31
0.0
  0
LINE
  5
FC
330
1F
100
AcDbEntity
  8
0
  6
Continuous
 62
     7
100
AcDbLine
 10
-46.97706464238365
 20
70.7661650581844
 30
0.0
 11
-46.97706464238365
 21
72.96616505818388
 31
0.0
  0
LINE
  5
FD
330
1F
100
AcDbEntity
  8
0
  6
Continuous
 62
     7
100
AcDbLine
 10
-44.82706464275235
 20
77.46616505818388
 30
0.0
 11
-44.82706464275235
 21
78.46616505818388
 31
0.0
  0
LINE
  5
FE
330
1F
100
AcDbEntity
  8
0
  6
Continuous
 62
     7
100
AcDbLine
 10
-44.82706464275235
 20
77.46616505818388
 30
0.0
 11
-45.97706464275235
 21
77.46616505818388
 31
0.0
  0
LINE
  5
FF
330
1F
100
AcDbEntity
  8
0
  6
Continuous
 62
     7
100
AcDbLine
 10
-45.60206464275235
 20
79.0496587072377
 30
0.0
 11
-45.60206464275235
 21
78.46616505818388
 31
0.0
  0
LINE
  5
100
330
1F
100
AcDbEntity
  8
0
  6
Continuous
 62
     7
100
AcDbLine
 10
-44.87706464275237
 20
82.96616505818388
 30
0.0
 11
-44.62706464275237
 21
82.96616505818388
 31
0.0
  0
LINE
  5
101
330
1F
100
AcDbEntity
  8
0
  6
Continuous
 62
     7
100
AcDbLine
 10
-44.87706464275237
 20
80.30539554272518
 30
0.0
 11
-44.62706464275237
 21
80.73840824461728
 31
0.0
  0
LINE
  5
102
330
1F
100
AcDbEntity
  8
0
  6
Continuous
 62
     7
100
AcDbLine
 10
-45.60206464275235
 20
79.0496587072377
 30
0.0
 11
-44.87706464275237
 21
80.30539554272518
 31
0.0
  0
LINE
  5
103
330
1F
100
AcDbEntity
  8
0
  6
Continuous
 62
     7
100
AcDbLine
 10
-44.87706464275237
 20
90.26616505818377
 30
0.0
 11
-45.87706464275237
 21
90.26616505818377
 31
0.0
  0
LINE
  5
104
330
1F
100
AcDbEntity
  8
0
  6
Continuous
 62
     7
100
AcDbLine
 10
-45.97706464275235
 20
72.96616505818388
 30
0.0
 11
-45.47706464275235
 21
72.96616505818388
 31
0.0
  0
LINE
  5
105
330
1F
100
AcDbEntity
  8
0
  6
Continuous
 62
     7
100
AcDbLine
 10
-45.47706464275235
 20
72.96616505818388
 30
0.0
 11
-45.47706464275235
 21
77.46616505818388
 31
0.0
  0
LINE
  5
106
330
1F
100
AcDbEntity
  8
0
  6
Continuous
 62
     7
100
AcDbLine
 10
-45.87706464275237
 20
78.46616505818388
 30
0.0
 11
-44.82706464275235
 21
78.46616505818388
 31
0.0
  0
LINE
  5
107
330
1F
100
AcDbEntity
  8
0
  6
Continuous
 62
     7
100
AcDbLine
 10
-44.87706464275237
 20
90.26616505818377
 30
0.0
 11
-44.87706464275237
 21
80.30539554272518
 31
0.0
  0
LINE
  5
108
330
1F
100
AcDbEntity
  8
0
  6
Continuous
 62
     7
100
AcDbLine
 10
-49.62706464311046
 20
97.56616505818378
 30
0.0
 11
-50.97706464311045
 21
96.21616505818382
 31
0.0
  0
LINE
  5
109
330
1F
100
AcDbEntity
  8
0
  6
Continuous
 62
     7
100
AcDbLine
 10
-49.62706464311052
 20
101.0661650581838
 30
0.0
 11
-49.62706464311046
 21
97.56616505818378
 31
0.0
  0
LINE
  5
10A
330
1F
100
AcDbEntity
  8
0
  6
Continuous
 62
     7
100
AcDbLine
 10
-49.62706464311046
 20
97.56616505818378
 30
0.0
 11
-46.82706464311048
 21
97.56616505818378
 31
0.0
  0
LINE
  5
10B
330
1F
100
AcDbEntity
  8
0
  6
Continuous
 62
     7
100
AcDbLine
 10
-49.62706464311052
 20
101.0661650581838
 30
0.0
 11
-46.8270646431105
 21
101.0661650581838
 31
0.0
  0
LINE
  5
10C
330
1F
100
AcDbEntity
  8
0
  6
Continuous
 62
     7
100
AcDbLine
 10
-46.8270646431105
 20
101.0661650581838
 30
0.0
 11
-46.82706464311048
 21
97.56616505818378
 31
0.0
  0
LINE
  5
10D
330
1F
100
AcDbEntity
  8
0
  6
Continuous
 62
     7
100
AcDbLine
 10
-46.22706464311037
 20
90.76616505818389
 30
0.0
 11
-45.27706464311038
 21
90.76616505818389
 31
0.0
  0
LINE
  5
10E
330
1F
100
AcDbEntity
  8
0
  6
Continuous
 62
     7
100
AcDbLine
 10
-50.22706464311037
 20
90.76616505818377
 30
0.0
 11
-46.22706464311037
 21
90.76616505818389
 31
0.0
  0
LINE
  5
10F
330
1F
100
AcDbEntity
  8
0
  6
Continuous
 62
     7
100
AcDbLine
 10
-51.17706464311038
 20
90.76616505818377
 30
0.0
 11
-50.22706464311037
 21
90.76616505818377
 31
0.0
  0
LINE
  5
110
330
1F
100
AcDbEntity
  8
0
  6
Continuous
 62
     7
100
AcDbLine
 10
-51.17706464311036
 20
90.26616505818377
 30
0.0
 11
-51.17706464311038
 21
90.76616505818377
 31
0.0
  0
LINE
  5
111
330
1F
100
AcDbEntity
  8
0
  6
Continuous
 62
     7
100
AcDbLine
 10
-45.27706464311035
 20
90.26616505818389
 30
0.0
 11
-45.27706464311038
 21
90.76616505818389
 31
0.0
  0
LINE
  5
112
330
1F
100
AcDbEntity
  8
0
  6
Continuous
 62
     7
100
AcDbLine
 10
-45.47706464311045
 20
96.21616505818393
 30
0.0
 11
-45.4770646431104
 21
91.26616505818389
 31
0.0
  0
LINE
  5
113
330
1F
100
AcDbEntity
  8
0
  6
Continuous
 62
     7
100
AcDbLine
 10
-46.22706464311037
 20
90.76616505818389
 30
0.0
 11
-46.22706464311037
 21
91.26616505818389
 31
0.0
  0
LINE
  5
114
330
1F
100
AcDbEntity
  8
0
  6
Continuous
 62
     7
100
AcDbLine
 10
-50.97706464311037
 20
91.26616505818377
 30
0.0
 11
-45.4770646431104
 21
91.26616505818389
 31
0.0
  0
LINE
  5
115
330
1F
100
AcDbEntity
  8
0
  6
Continuous
 62
     7
100
AcDbLine
 10
-50.97706464311045
 20
96.21616505818382
 30
0.0
 11
-50.97706464311037
 21
91.26616505818377
 31
0.0
  0
LINE
  5
116
330
1F
100
AcDbEntity
  8
0
  6
Continuous
 62
     7
100
AcDbLine
 10
-50.22706464311037
 20
90.76616505818377
 30
0.0
 11
-50.22706464311037
 21
91.26616505818377
 31
0.0
  0
LINE
  5
117
330
1F
100
AcDbEntity
  8
0
  6
Continuous
 62
     7
100
AcDbLine
 10
-50.97706464311045
 20
96.21616505818382
 30
0.0
 11
-45.47706464311045
 21
96.21616505818393
 31
0.0
  0
LINE
  5
118
330
1F
100
AcDbEntity
  8
0
  6
Continuous
 62
     7
100
AcDbLine
 10
-46.82706464311048
 20
97.56616505818378
 30
0.0
 11
-45.47706464311045
 21
96.21616505818393
 31
0.0
  0
ARC
  5
119
330
1F
100
AcDbEntity
  8
0
  6
Continuous
 62
     7
100
AcDbCircle
 10
-15.35673854903507
 20
130.0467077247295
 30
0.0
 40
3.557425620009467
100
AcDbArc
 50
243.8443816891546
 51
255.7179566476032
  0
SPLINE
  5
11A
330
1F
100
AcDbEntity
  8
0
  6
Continuous
 62
     7
100
AcDbSpline
210
0.0
220
0.0
230
1.0
 70
     8
 71
     3
 72
    11
 73
     7
 74
     5
 42
0.000000001
 43
0.0000000001
 44
0.00000001
 40
0.0
 40
0.0
 40
0.0
 40
0.0
 40
0.1235247388887977
 40
0.2303320407693146
 40
0.3701856145275411
 40
0.5421649287760021
 40
0.5421649287760021
 40
0.5421649287760021
 40
0.5421649287760021
 10
-11.66749410442249
 20
124.5475835597005
 30
0.0
 10
-11.70630076546027
 20
124.5320681249998
 30
0.0
 10
-11.77866212316754
 20
124.5031370762369
 30
0.0
 10
-11.9076534756396
 20
124.5255463508911
 30
0.0
 10
-12.00792913321479
 20
124.6399303587607
 30
0.0
 10
-12.01638435364158
 20
124.745562345966
 30
0.0
 10
-12.02104749501575
 20
124.8038195662961
 30
0.0
 11
-11.66749410442249
 21
124.5475835597005
 31
0.0
 11
-11.78618559770808
 21
124.5133681866057
 31
0.0
 11
-11.89110090217247
 21
124.5333826660928
 31
0.0
 11
-11.98691105861339
 21
124.6352621894297
 31
0.0
 11
-12.02104749501575
 21
124.8038195662961
 31
0.0
  0
SPLINE
  5
11B
330
1F
100
AcDbEntity
  8
0
  6
Continuous
 62
     7
100
AcDbSpline
210
0.0
220
0.0
230
1.0
 70
     8
 71
     3
 72
     9
 73
     5
 74
     3
 42
0.000000001
 43
0.0000000001
 44
0.00000001
 40
0.0
 40
0.0
 40
0.0
 40
0.0
 40
0.2470494853041421
 40
0.4606640939032081
 40
0.4606640939032081
 40
0.4606640939032081
 40
0.4606640939032081
 10
-20.29419683489837
 20
137.2231760007248
 30
0.0
 10
-20.21554202277249
 20
137.2562405602913
 30
0.0
 10
-20.068877283086
 20
137.317894810197
 30
0.0
 10
-19.91728029720466
 20
137.272587333086
 30
0.0
 10
-19.84698323939841
 20
137.2515777879402
 30
0.0
 11
-20.29419683489837
 21
137.2231760007248
 31
0.0
 11
-20.05681384832718
 21
137.2916067469143
 31
0.0
 11
-19.84698323939841
 21
137.2515777879402
 31
0.0
  0
SPLINE
  5
11C
330
1F
100
AcDbEntity
  8
0
  6
Continuous
 62
     7
100
AcDbSpline
210
0.0
220
0.0
230
1.0
 70
     8
 71
     3
 72
     9
 73
     5
 74
     3
 42
0.000000001
 43
0.0000000001
 44
0.00000001
 40
0.0
 40
0.0
 40
0.0
 40
0.0
 40
0.7096758789357713
 40
1.454915358207682
 40
1.454915358207682
 40
1.454915358207682
 40
1.454915358207682
 10
-19.51637937559316
 20
133.5108653994953
 30
0.0
 10
-19.70761242616301
 20
133.3574256529688
 30
0.0
 10
-20.0996616699604
 20
133.0428569058731
 30
0.0
 10
-20.18154416179765
 20
132.545859535923
 30
0.0
 10
-20.22348615677971
 20
132.2912866051177
 30
0.0
 11
-19.51637937559316
 21
133.5108653994953
 31
0.0
 11
-20.01628132307992
 21
133.0071413683506
 31
0.0
 11
-20.22348615677971
 21
132.2912866051177
 31
0.0
  0
SPLINE
  5
11D
330
1F
100
AcDbEntity
  8
0
  6
Continuous
 62
     7
100
AcDbSpline
210
0.0
220
0.0
230
1.0
 70
     8
 71
     3
 72
    11
 73
     7
 74
     5
 42
0.000000001
 43
0.0000000001
 44
0.00000001
 40
0.0
 40
0.0
 40
0.0
 40
0.0
 40
0.127575471659066
 40
0.2539625779176182
 40
0.357225178729452
 40
0.4582176603178393
 40
0.4582176603178393
 40
0.4582176603178393
 40
0.4582176603178393
 10
-23.44027594270784
 20
135.65013644682
 30
0.0
 10
-23.41175699217808
 20
135.6816891450919
 30
0.0
 10
-23.35498473401693
 20
135.7445006179995
 30
0.0
 10
-23.27074060754738
 20
135.8287147799838
 30
0.0
 10
-23.19029849784627
 20
135.9040966780041
 30
0.0
 10
-23.13854321633222
 20
135.9483468618153
 30
0.0
 10
-23.11295317839176
 20
135.9702260468131
 30
0.0
 11
-23.44027594270784
 21
135.65013644682
 31
0.0
 11
-23.35393188851948
 21
135.7440523948853
 31
0.0
 11
-23.26476819518711
 21
135.8336265905066
 31
0.0
 11
-23.18921919486346
 21
135.9040219977099
 31
0.0
 11
-23.11295317839176
 21
135.9702260468131
 31
0.0
  0
SPLINE
  5
11E
330
1F
100
AcDbEntity
  8
0
  6
Continuous
 62
     7
100
AcDbSpline
210
0.0
220
0.0
230
1.0
 70
     8
 71
     3
 72
     9
 73
     5
 74
     3
 42
0.000000001
 43
0.0000000001
 44
0.00000001
 40
0.0
 40
0.0
 40
0.0
 40
0.0
 40
0.640899987249543
 40
1.078847844700427
 40
1.078847844700427
 40
1.078847844700427
 40
1.078847844700427
 10
-16.92488982020119
 20
126.8535621545057
 30
0.0
 10
-17.12420251369247
 20
126.9559901151139
 30
0.0
 10
-17.45971205528065
 20
127.1284104543792
 30
0.0
 10
-17.58433979026437
 20
127.4777137532048
 30
0.0
 10
-17.63493120803787
 20
127.6195100559874
 30
0.0
 11
-16.92488982020119
 21
126.8535621545057
 31
0.0
 11
-17.44840625075668
 21
127.2232692600164
 31
0.0
 11
-17.63493120803787
 21
127.6195100559874
 31
0.0
  0
SPLINE
  5
11F
330
1F
100
AcDbEntity
  8
0
  6
Continuous
 62
     7
100
AcDbSpline
210
0.0
220
0.0
230
1.0
 70
     8
 71
     3
 72
     9
 73
     5
 74
     3
 42
0.000000001
 43
0.0000000001
 44
0.00000001
 40
0.0
 40
0.0
 40
0.0
 40
0.0
 40
0.1398535755226598
 40
0.3118328901050824
 40
0.3118328901050824
 40
0.3118328901050824
 40
0.3118328901050824
 10
-15.00237073939329
 20
126.0890175847032
 30
0.0
 10
-15.03939409899077
 20
126.1203469384288
 30
0.0
 10
-15.12194543211491
 20
126.1902023173843
 30
0.0
 10
-15.12863046935598
 20
126.2992909077262
 30
0.0
 10
-15.13231733223657
 20
126.3594544849065
 30
0.0
 11
-15.00237073939329
 21
126.0890175847032
 31
0.0
 11
-15.09818089583421
 21
126.1908971080401
 31
0.0
 11
-15.13231733223657
 21
126.3594544849065
 31
0.0
  0
SPLINE
  5
120
330
1F
100
AcDbEntity
  8
0
  6
Continuous
 62
     7
100
AcDbSpline
210
0.0
220
0.0
230
1.0
 70
    11
 71
     3
 72
    18
 73
    14
 74
    12
 42
0.000000001
 43
0.0000000001
 44
0.00000001
 40
0.0
 40
0.0
 40
0.0
 40
0.0
 40
0.4968077200599155
 40
1.160560425509686
 40
1.916012174254024
 40
2.5974087408237
 40
2.906220599902231
 40
3.173238862907752
 40
3.826708153776991
 40
4.738440961597085
 40
5.377744855426374
 40
5.903707133587385
 40
6.32599355176034
 40
6.32599355176034
 40
6.32599355176034
 40
6.32599355176034
 10
-9.079885922778345
 20
126.0020021815235
 30
0.0
 10
-9.19774242254927
 20
126.1280438514404
 30
0.0
 10
-9.473059380947634
 20
126.4224816527613
 30
0.0
 10
-9.376195822910553
 20
127.1207140107626
 30
0.0
 10
-9.084760469568515
 20
127.7499523662367
 30
0.0
 10
-8.648133956381475
 20
128.175490595342
 30
0.0
 10
-8.242314206080543
 20
128.3110399604737
 30
0.0
 10
-7.810744942012832
 20
128.2399010827665
 30
0.0
 10
-7.532637341670314
 20
127.5615594922562
 30
0.0
 10
-7.761993728037812
 20
126.8363746768221
 30
0.0
 10
-8.155884794046695
 20
126.2730869748924
 30
0.0
 10
-8.612760209944117
 20
125.9240900195673
 30
0.0
 10
-8.935956123003804
 20
125.9779960500462
 30
0.0
 10
-9.079885922778345
 20
126.0020021815235
 30
0.0
 11
-9.079885922778345
 21
126.0020021815235
 31
0.0
 11
-9.372252372711475
 21
126.4036734141689
 31
0.0
 11
-9.353456355597956
 21
127.0671599357774
 31
0.0
 11
-9.030245832116481
 21
127.7499793133682
 31
0.0
 11
-8.520868928403416
 21
128.2025679250039
 31
0.0
 11
-8.224140195189426
 21
128.2881063577408
 31
0.0
 11
-7.961851934028474
 21
128.2380701590232
 31
0.0
 11
-7.641633758862201
 21
127.6684365610103
 31
0.0
 11
-7.836215731521968
 21
126.7777095718326
 31
0.0
 11
-8.211801932297229
 21
126.2603659002646
 31
0.0
 11
-8.65807272132407
 21
125.9820159393497
 31
0.0
 11
-9.079885922778345
 21
126.0020021815235
 31
0.0
  0
SPLINE
  5
121
330
1F
100
AcDbEntity
  8
0
  6
Continuous
 62
     7
100
AcDbSpline
210
0.0
220
0.0
230
1.0
 70
     8
 71
     3
 72
    17
 73
    13
 74
    11
 42
0.000000001
 43
0.0000000001
 44
0.00000001
 40
0.0
 40
0.0
 40
0.0
 40
0.0
 40
0.9977672450876879
 40
1.780604404037071
 40
2.64955414162899
 40
3.786746296381303
 40
5.111405086676939
 40
6.381115170311596
 40
7.206615891403283
 40
7.877913064884402
 40
8.660750223825351
 40
9.658517468913658
 40
9.658517468913658
 40
9.658517468913658
 40
9.658517468913658
 10
-8.395322191545034
 20
128.4548052877815
 30
0.0
 10
-8.384945581370955
 20
128.7932126439742
 30
0.0
 10
-8.366427599603655
 20
129.3971306727685
 30
0.0
 10
-8.967839934855995
 20
130.188473918305
 30
0.0
 10
-10.0135767013806
 20
130.1323560480908
 30
0.0
 10
-10.89908124348052
 20
129.4072268505747
 30
0.0
 10
-11.56980463109845
 20
128.3380811038809
 30
0.0
 10
-11.8362070130784
 20
127.2025640496815
 30
0.0
 10
-11.70205789734949
 20
126.2633288060021
 30
0.0
 10
-11.16653125010452
 20
125.6359667671346
 30
0.0
 10
-10.250979404564
 20
125.6302657434834
 30
0.0
 10
-9.778251012518982
 20
126.0074057353691
 30
0.0
 10
-9.513356180294892
 20
126.2187373102818
 30
0.0
 11
-8.395322191545034
 21
128.4548052877815
 31
0.0
 11
-8.496915389690162
 21
129.4473869304701
 31
0.0
 11
-9.003191217813537
 21
130.0444788879782
 31
0.0
 11
-9.871935216078139
 21
130.0633870045551
 31
0.0
 11
-10.80400919673366
 21
129.4118932619751
 31
0.0
 11
-11.51079769097884
 21
128.2915491457721
 31
0.0
 11
-11.77356012186118
 21
127.0493254921545
 31
0.0
 11
-11.60970522712985
 21
126.2402500831959
 31
0.0
 11
-11.14981647621336
 21
125.7512283711786
 31
0.0
 11
-10.36837741333286
 21
125.7044628831847
 31
0.0
 11
-9.513356180294892
 21
126.2187373102818
 31
0.0
  0
SPLINE
  5
122
330
1F
100
AcDbEntity
  8
0
  6
Continuous
 62
     7
100
AcDbSpline
210
0.0
220
0.0
230
1.0
 70
     8
 71
     3
 72
    11
 73
     7
 74
     5
 42
0.000000001
 43
0.0000000001
 44
0.00000001
 40
0.0
 40
0.0
 40
0.0
 40
0.0
 40
0.5890335142332273
 40
1.163401606873666
 40
2.14281237896861
 40
2.932149770104149
 40
2.932149770104149
 40
2.932149770104149
 40
2.932149770104149
 10
-24.05838018984585
 20
135.1520689539566
 30
0.0
 10
-23.95488979914579
 20
135.3197286571731
 30
0.0
 10
-23.75048565075247
 20
135.6508737595898
 30
0.0
 10
-23.27300899192687
 20
136.1788286433285
 30
0.0
 10
-22.63239616036372
 20
136.6913393979243
 30
0.0
 10
-22.0330792071384
 20
136.7337267173344
 30
0.0
 10
-21.76562265653054
 20
136.7526428550506
 30
0.0
 11
-24.05838018984585
 21
135.1520689539566
 31
0.0
 11
-23.73385291899335
 21
135.6436404443126
 31
0.0
 11
-23.35252539313345
 21
136.073161137511
 31
0.0
 11
-22.54494248522303
 21
136.627286861076
 31
0.0
 11
-21.76562265653054
 21
136.7526428550506
 31
0.0
  0
SPLINE
  5
123
330
1F
100
AcDbEntity
  8
0
  6
Continuous
 62
     7
100
AcDbSpline
210
0.0
220
0.0
230
1.0
 70
     8
 71
     3
 72
    12
 73
     8
 74
     6
 42
0.000000001
 43
0.0000000001
 44
0.00000001
 40
0.0
 40
0.0
 40
0.0
 40
0.0
 40
0.1257050675487418
 40
0.2508042499779524
 40
1.111613955844682
 40
1.843255168023103
 40
2.471873243879083
 40
2.471873243879083
 40
2.471873243879083
 40
2.471873243879083
 10
-23.36827530325081
 20
135.6861367665485
 30
0.0
 10
-23.34145024279449
 20
135.7183274384489
 30
0.0
 10
-23.28792940491059
 20
135.782553617405
 30
0.0
 10
-23.04017158779592
 20
136.0583163540894
 30
0.0
 10
-22.60638458835767
 20
136.4334080880307
 30
0.0
 10
-21.92250755254247
 20
136.7823087893679
 30
0.0
 10
-21.462956237191
 20
136.7567802891041
 30
0.0
 10
-21.25058329770823
 20
136.7449827693198
 30
0.0
 11
-23.36827530325081
 21
135.6861367665485
 31
0.0
 11
-23.2872025659119
 21
135.7822043210095
 31
0.0
 11
-23.20367648723091
 21
135.8753343353341
 31
0.0
 11
-22.54800962172819
 21
136.4330926321999
 31
0.0
 11
-21.87900544296462
 21
136.7292889825476
 31
0.0
 11
-21.25058329770823
 21
136.7449827693198
 31
0.0
  0
SPLINE
  5
124
330
1F
100
AcDbEntity
  8
0
  6
Continuous
 62
     7
100
AcDbSpline
210
0.0
220
0.0
230
1.0
 70
     8
 71
     3
 72
    11
 73
     7
 74
     5
 42
0.000000001
 43
0.0000000001
 44
0.00000001
 40
0.0
 40
0.0
 40
0.0
 40
0.0
 40
0.3549835678307559
 40
0.6995420982431834
 40
1.025374569364324
 40
1.328877381472124
 40
1.328877381472124
 40
1.328877381472124
 40
1.328877381472124
 10
-24.32470548766169
 20
133.666479101065
 30
0.0
 10
-24.34471077185964
 20
133.5497473549114
 30
0.0
 10
-24.38413381706867
 20
133.3197119989881
 30
0.0
 10
-24.40045546132567
 20
132.9776928064172
 30
0.0
 10
-24.38660535491788
 20
132.6522852157688
 30
0.0
 10
-24.34484487565259
 20
132.4464126288071
 30
0.0
 10
-24.32470548766169
 20
132.347128654162
 30
0.0
 11
-24.32470548766169
 21
133.666479101065
 31
0.0
 11
-24.37743700270693
 21
133.3154339176937
 31
0.0
 11
-24.3954161660335
 21
132.9713447849297
 31
0.0
 11
-24.37749278332819
 21
132.6460056503899
 31
0.0
 11
-24.32470548766169
 21
132.347128654162
 31
0.0
  0
SPLINE
  5
125
330
1F
100
AcDbEntity
  8
0
  6
Continuous
 62
     7
100
AcDbSpline
210
0.0
220
0.0
230
1.0
 70
     8
 71
     3
 72
    11
 73
     7
 74
     5
 42
0.000000001
 43
0.0000000001
 44
0.00000001
 40
0.0
 40
0.0
 40
0.0
 40
0.0
 40
0.1007713343160255
 40
0.2038025308492233
 40
0.2518454230902669
 40
0.3000695569903609
 40
0.3000695569903609
 40
0.3000695569903609
 40
0.3000695569903609
 10
-24.35624719891645
 20
133.4840416227948
 30
0.0
 10
-24.35409837559073
 20
133.5175668404476
 30
0.0
 10
-24.34975252434259
 20
133.5853690991868
 30
0.0
 10
-24.34057333812071
 20
133.6688418573613
 30
0.0
 10
-24.33192432402126
 20
133.7347106796867
 30
0.0
 10
-24.32711478957182
 20
133.7664381374032
 30
0.0
 10
-24.32470548766169
 20
133.7823317317908
 30
0.0
 11
-24.35624719891645
 21
133.4840416227948
 31
0.0
 11
-24.34904714689777
 21
133.5845554083222
 31
0.0
 11
-24.33808082438701
 21
133.6870013321068
 31
0.0
 11
-24.33177484329775
 21
133.73462857343
 31
0.0
 11
-24.32470548766169
 21
133.7823317317908
 31
0.0
  0
SPLINE
  5
126
330
1F
100
AcDbEntity
  8
0
  6
Continuous
 62
     7
100
AcDbSpline
210
0.0
220
0.0
230
1.0
 70
     8
 71
     3
 72
     9
 73
     5
 74
     3
 42
0.000000001
 43
0.0000000001
 44
0.00000001
 40
0.0
 40
0.0
 40
0.0
 40
0.0
 40
0.7096758789358545
 40
1.454915358207765
 40
1.454915358207765
 40
1.454915358207765
 40
1.454915358207765
 10
-23.61759870647514
 20
135.5614750649364
 30
0.0
 10
-23.80883175704499
 20
135.4080353184098
 30
0.0
 10
-24.20088100084235
 20
135.0934665713141
 30
0.0
 10
-24.28276349267963
 20
134.596469201364
 30
0.0
 10
-24.32470548766169
 20
134.3418962705587
 30
0.0
 11
-23.61759870647514
 21
135.5614750649364
 31
0.0
 11
-24.1175006539619
 21
135.0577510337916
 31
0.0
 11
-24.32470548766169
 21
134.3418962705587
 31
0.0
  0
SPLINE
  5
127
330
1F
100
AcDbEntity
  8
0
  6
Continuous
 62
     7
100
AcDbSpline
210
0.0
220
0.0
230
1.0
 70
     8
 71
     3
 72
    11
 73
     7
 74
     5
 42
0.000000001
 43
0.0000000001
 44
0.00000001
 40
0.0
 40
0.0
 40
0.0
 40
0.0
 40
0.6972656707189071
 40
1.535086588169928
 40
2.145642897497747
 40
2.772066895036214
 40
2.772066895036214
 40
2.772066895036214
 40
2.772066895036214
 10
-24.32470548766169
 20
132.1233107762098
 30
0.0
 10
-24.42299992370712
 20
132.3369047450163
 30
0.0
 10
-24.63940303444114
 20
132.807149092709
 30
0.0
 10
-24.61057565532958
 20
133.5433795140252
 30
0.0
 10
-24.47498956003553
 20
134.2215926107344
 30
0.0
 10
-24.31830945669501
 20
134.6043602401343
 30
0.0
 10
-24.23896447061509
 20
134.7981990782618
 30
0.0
 11
-24.32470548766169
 21
132.1233107762098
 31
0.0
 11
-24.57068646756376
 21
132.775746808205
 31
0.0
 11
-24.58236278075834
 21
133.6134863622613
 31
0.0
 11
-24.45754866219847
 21
134.2111488463088
 31
0.0
 11
-24.23896447061509
 21
134.7981990782618
 31
0.0
  0
SPLINE
  5
128
330
1F
100
AcDbEntity
  8
0
  6
Continuous
 62
     7
100
AcDbSpline
210
0.0
220
0.0
230
1.0
 70
     8
 71
     3
 72
     9
 73
     5
 74
     3
 42
0.000000001
 43
0.0000000001
 44
0.00000001
 40
0.0
 40
0.0
 40
0.0
 40
0.0
 40
0.906264004037951
 40
1.812528008075902
 40
1.812528008075902
 40
1.812528008075902
 40
1.812528008075902
 10
-28.10772676726286
 20
135.9235155963835
 30
0.0
 10
-28.06212152025303
 20
136.2306961366562
 30
0.0
 10
-27.9709110082262
 20
136.8450572105263
 30
0.0
 10
-27.53414845634619
 20
137.2866422644698
 30
0.0
 10
-27.31576717233394
 20
137.5074347862413
 30
0.0
 11
-28.10772676726286
 21
135.9235155963835
 31
0.0
 11
-27.88452300720718
 21
136.8018632100168
 31
0.0
 11
-27.31576717233394
 21
137.5074347862413
 31
0.0
  0
SPLINE
  5
129
330
1F
100
AcDbEntity
  8
0
  6
Continuous
 62
     7
100
AcDbSpline
210
0.0
220
0.0
230
1.0
 70
     8
 71
     3
 72
    13
 73
     9
 74
     7
 42
0.000000001
 43
0.0000000001
 44
0.00000001
 40
0.0
 40
0.0
 40
0.0
 40
0.0
 40
0.769194677855621
 40
1.715080910328005
 40
3.495242362678127
 40
5.27540381502831
 40
6.221290047500657
 40
6.990484725356252
 40
6.990484725356252
 40
6.990484725356252
 40
6.990484725356252
 10
-24.93334573137497
 20
138.4008680411629
 30
0.0
 10
-25.19134362695567
 20
138.4585839950815
 30
0.0
 10
-25.7666040635928
 20
138.5872738061848
 30
0.0
 10
-26.84219175624432
 20
137.960104954852
 30
0.0
 10
-27.77072828275264
 20
136.7449658477894
 30
0.0
 10
-28.18571765249762
 20
135.2730531623454
 30
0.0
 10
-28.04210011797301
 20
134.0362816974244
 30
0.0
 10
-27.59399200710812
 20
133.6532872347768
 30
0.0
 10
-27.39302050662474
 20
133.4815184906634
 30
0.0
 11
-24.93334573137497
 21
138.4008680411629
 31
0.0
 11
-25.69778915031259
 21
138.4862303024911
 31
0.0
 11
-26.55209184865245
 21
138.0801912790024
 31
0.0
 11
-27.66929081001061
 21
136.6942471114185
 31
0.0
 11
-28.10772676726286
 21
134.9689214417816
 31
0.0
 11
-27.91997636704987
 21
134.0418558690165
 31
0.0
 11
-27.39302050662474
 21
133.4815184906634
 31
0.0
  0
SPLINE
  5
12A
330
1F
100
AcDbEntity
  8
0
  6
Continuous
 62
     7
100
AcDbSpline
210
0.0
220
0.0
230
1.0
 70
     8
 71
     3
 72
    11
 73
     7
 74
     5
 42
0.000000001
 43
0.0000000001
 44
0.00000001
 40
0.0
 40
0.0
 40
0.0
 40
0.0
 40
0.3439586315698341
 40
0.6236657835897585
 40
0.8372803909319674
 40
1.084329873635025
 40
1.084329873635025
 40
1.084329873635025
 40
1.084329873635025
 10
-15.48587072282984
 20
134.6600943220926
 30
0.0
 10
-15.49519700566151
 20
134.7766087637939
 30
0.0
 10
-15.51210743410896
 20
134.9878727439139
 30
0.0
 10
-15.71265875580521
 20
135.2166407597802
 30
0.0
 10
-15.97064146541636
 20
135.2614593159913
 30
0.0
 10
-16.11536418039344
 20
135.2035972053038
 30
0.0
 10
-16.1929775040164
 20
135.1725663352838
 30
0.0
 11
-15.48587072282984
 21
134.6600943220926
 31
0.0
 11
-15.55414359563456
 21
134.9972090758254
 31
0.0
 11
-15.74576390851644
 21
135.2009681224992
 31
0.0
 11
-15.9555945174452
 21
135.2409970814733
 31
0.0
 11
-16.1929775040164
 21
135.1725663352838
 31
0.0
  0
SPLINE
  5
12B
330
1F
100
AcDbEntity
  8
0
  6
Continuous
 62
     7
100
AcDbSpline
210
0.0
220
0.0
230
1.0
 70
     8
 71
     3
 72
    11
 73
     7
 74
     5
 42
0.000000001
 43
0.0000000001
 44
0.00000001
 40
0.0
 40
0.0
 40
0.0
 40
0.0
 40
0.7318856055168728
 40
1.753026342753143
 40
2.774167079989471
 40
3.506052685506404
 40
3.506052685506404
 40
3.506052685506404
 40
3.506052685506404
 10
-30.21875004145456
 20
136.4037291428907
 30
0.0
 10
-30.37208377448115
 20
136.610012729297
 30
0.0
 10
-30.73935163892027
 20
137.1041071122525
 30
0.0
 10
-30.40034202427173
 20
138.0597727185491
 30
0.0
 10
-29.83921530802361
 20
138.9043797740459
 30
0.0
 10
-29.22357908299571
 20
138.9070221122679
 30
0.0
 10
-28.96655197405467
 20
138.9081252776904
 30
0.0
 11
-30.21875004145456
 21
136.4037291428907
 31
0.0
 11
-30.57739439764079
 21
137.0417187726652
 31
0.0
 11
-30.35946258826185
 21
138.0393330005441
 31
0.0
 11
-29.69213029158605
 21
138.8122469847747
 31
0.0
 11
-28.96655197405467
 21
138.9081252776904
 31
0.0
  0
SPLINE
  5
12C
330
1F
100
AcDbEntity
  8
0
  6
Continuous
 62
     7
100
AcDbSpline
210
0.0
220
0.0
230
1.0
 70
     8
 71
     3
 72
     9
 73
     5
 74
     3
 42
0.000000001
 43
0.0000000001
 44
0.00000001
 40
0.0
 40
0.0
 40
0.0
 40
0.0
 40
0.34395863190374
 40
0.6236657856881446
 40
0.6236657856881446
 40
0.6236657856881446
 40
0.6236657856881446
 10
-24.32470548766169
 20
130.9643971957993
 30
0.0
 10
-24.31733176184179
 20
130.8440700404805
 30
0.0
 10
-24.30396170477452
 20
130.625892851162
 30
0.0
 10
-24.13885902189515
 20
130.4861821034574
 30
0.0
 10
-24.0648123019751
 20
130.4235233953927
 30
0.0
 11
-24.32470548766169
 21
130.9643971957993
 31
0.0
 11
-24.25643261485697
 21
130.6272824420666
 31
0.0
 11
-24.0648123019751
 21
130.4235233953927
 31
0.0
  0
MTEXT
  5
12D
330
1F
100
AcDbEntity
  8
1
 62
     7
100
AcDbMText
 10
-20.16184965562866
 20
5.03031971037802
 30
0.0
 40
2.25
 41
0.0
 71
     5
 72
     1
  1
2:1
  7
CONVERTER_12
 73
     1
 44
1.32052821128451
  0
MTEXT
  5
12E
330
1F
100
AcDbEntity
  8
1
 62
     7
100
AcDbMText
 10
-76.3618496556287
 20
6.25
 30
0.0
 40
2.25
 41
0.0
 71
     4
 72
     1
  1
CL 125 SC\PSC contact for optical fibre 50-62,5/125um
  7
CONVERTER_12
 73
     1
 44
0.90036014405762
  0
MTEXT
  5
12F
330
1F
100
AcDbEntity
  8
1
 62
     7
100
AcDbMText
 10
-88.70000000000005
 20
6.24999999999994
 30
0.0
 40
1.5
 41
0.0
 71
     4
 72
     1
  1
12/11/12
  7
CONVERTER_12
 73
     1
 44
1.32052821128451
  0
MTEXT
  5
130
330
1F
100
AcDbEntity
  8
1
 62
     7
100
AcDbMText
 10
-88.70000000000005
 20
3.74999999999994
 30
0.0
 40
1.5
 41
0.0
 71
     4
 72
     1
  1
T.Tedeschi
  7
CONVERTER_12
 73
     1
 44
1.32052821128451
  0
DIMENSION
  5
13E
330
1F
100
AcDbEntity
  8
1
100
AcDbDimension
  2
*D3
 10
-49.4770646423836
 20
66.0713779936925
 30
0.0
 11
-40.89101996330204
 21
67.8963779936925
 31
0.0
 70
    32
  1
<>
 71
     5
 42
-1.0
 53
0.00013888888889
  3
ME10_DIM_10
100
AcDbAlignedDimension
 13
-46.97706464238365
 23
70.7661650581844
 33
0.0
 14
-49.4770646423836
 24
70.7661650581844
 34
0.0
100
AcDbRotatedDimension
  0
DIMENSION
  5
14A
330
1F
100
AcDbEntity
  8
1
100
AcDbDimension
  2
*D4
 10
-51.62706464275237
 20
75.0580177635881
 30
0.0
 11
-39.16067317530974
 21
76.8830177635881
 31
0.0
 70
    32
  1
<>
 71
     5
 42
-1.0
 53
0.00013888888889
  3
ME10_DIM_11
100
AcDbAlignedDimension
 13
-44.82706464275235
 23
77.46616505818388
 33
0.0
 14
-51.62706464275237
 24
77.46616505818388
 34
0.0
100
AcDbRotatedDimension
  0
DIMENSION
  5
156
330
1F
100
AcDbEntity
  8
1
100
AcDbDimension
  2
*D5
 10
-51.82706464275235
 20
81.7003167239457
 30
0.0
 11
-39.21649081363214
 21
83.5253167239457
 31
0.0
 70
    32
  1
<>
 71
     5
 42
-1.0
 53
0.00013888888889
  3
ME10_DIM_12
100
AcDbAlignedDimension
 13
-44.62706464275237
 23
82.96616505818388
 33
0.0
 14
-51.82706464275235
 24
82.96616505818388
 34
0.0
100
AcDbRotatedDimension
  0
DIMENSION
  5
161
330
1F
100
AcDbEntity
  8
1
100
AcDbDimension
  2
*D6
 10
-60.3422390187237
 20
90.26616505818377
 30
0.0
 11
-62.1672390187237
 21
81.61616505818382
 31
0.0
 70
    32
  1
<>
 71
     5
 42
-1.0
 53
90.0
  3
ME10_DIM_13
100
AcDbAlignedDimension
 13
-50.97706464275233
 23
72.96616505818388
 33
0.0
 14
-51.57706464275235
 24
90.26616505818377
 34
0.0
 50
90.0
100
AcDbRotatedDimension
  0
ENDSEC
  0
SECTION
  2
OBJECTS
  0
DICTIONARY
  5
C
330
0
100
AcDbDictionary
281
     1
  3
ACAD_GROUP
350
D
  3
ACAD_LAYOUT
350
1A
  3
ACAD_MATERIAL
350
3B
  3
ACAD_MLEADERSTYLE
350
164
  3
ACAD_MLINESTYLE
350
17
  3
ACAD_PLOTSETTINGS
350
19
  3
ACAD_PLOTSTYLENAME
350
E
  3
ACAD_VISUALSTYLE
350
2A
  3
AcDbVariableDictionary
350
162
  0
DICTIONARY
  5
D
102
{ACAD_REACTORS
330
C
102
}
330
C
100
AcDbDictionary
281
     1
  0
DICTIONARY
  5
1A
102
{ACAD_REACTORS
330
C
102
}
330
C
100
AcDbDictionary
281
     1
  3
Layout1
350
1E
  3
Layout2
350
26
  3
Model
350
22
  0
DICTIONARY
  5
3B
102
{ACAD_REACTORS
330
C
102
}
330
C
100
AcDbDictionary
281
     1
  3
ByBlock
350
3D
  3
ByLayer
350
3C
  3
Global
350
3E
  0
DICTIONARY
  5
164
102
{ACAD_REACTORS
330
C
102
}
330
C
100
AcDbDictionary
281
     1
  0
DICTIONARY
  5
17
102
{ACAD_REACTORS
330
C
102
}
330
C
100
AcDbDictionary
281
     1
  3
Standard
350
18
  0
DICTIONARY
  5
19
102
{ACAD_REACTORS
330
C
102
}
330
C
100
AcDbDictionary
281
     1
  0
ACDBDICTIONARYWDFLT
  5
E
102
{ACAD_REACTORS
330
C
102
}
330
C
100
AcDbDictionary
281
     1
  3
Normal
350
F
100
AcDbDictionaryWithDefault
340
F
  0
DICTIONARY
  5
2A
102
{ACAD_REACTORS
330
C
102
}
330
C
100
AcDbDictionary
281
     1
  3
2dWireframe
350
2F
  3
3D Hidden
350
31
  3
3dWireframe
350
30
  3
Basic
350
32
  3
Brighten
350
36
  3
ColorChange
350
3A
  3
Conceptual
350
34
  3
Dim
350
35
  3
Facepattern
350
39
  3
Flat
350
2B
  3
FlatWithEdges
350
2C
  3
Gouraud
350
2D
  3
GouraudWithEdges
350
2E
  3
Linepattern
350
38
  3
Realistic
350
33
  3
Thicken
350
37
  0
DICTIONARY
  5
162
102
{ACAD_REACTORS
330
C
102
}
330
C
100
AcDbDictionary
281
     1
  3
DIMASSOC
350
165
  3
HIDETEXT
350
166
  0
LAYOUT
  5
1E
102
{ACAD_REACTORS
330
1A
102
}
330
1A
100
AcDbPlotSettings
  1

  2
none_device
  4

  6

 40
0.0
 41
0.0
 42
0.0
 43
0.0
 44
0.0
 45
0.0
 46
0.0
 47
0.0
 48
0.0
 49
0.0
140
0.0
141
0.0
142
1.0
143
1.0
 70
   688
 72
     0
 73
     0
 74
     5
  7

 75
    16
147
1.0
148
0.0
149
0.0
100
AcDbLayout
  1
Layout1
 70
     1
 71
     1
 10
0.0
 20
0.0
 11
12.0
 21
9.0
 12
0.0
 22
0.0
 32
0.0
 14
1.00000000000000E+20
 24
1.00000000000000E+20
 34
1.00000000000000E+20
 15
-1.00000000000000E+20
 25
-1.00000000000000E+20
 35
-1.00000000000000E+20
146
0.0
 13
0.0
 23
0.0
 33
0.0
 16
1.0
 26
0.0
 36
0.0
 17
0.0
 27
1.0
 37
0.0
 76
     0
330
1B
  0
LAYOUT
  5
26
102
{ACAD_REACTORS
330
1A
102
}
330
1A
100
AcDbPlotSettings
  1

  2
none_device
  4

  6

 40
0.0
 41
0.0
 42
0.0
 43
0.0
 44
0.0
 45
0.0
 46
0.0
 47
0.0
 48
0.0
 49
0.0
140
0.0
141
0.0
142
1.0
143
1.0
 70
   688
 72
     0
 73
     0
 74
     5
  7

 75
    16
147
1.0
148
0.0
149
0.0
100
AcDbLayout
  1
Layout2
 70
     1
 71
     2
 10
0.0
 20
0.0
 11
0.0
 21
0.0
 12
0.0
 22
0.0
 32
0.0
 14
0.0
 24
0.0
 34
0.0
 15
0.0
 25
0.0
 35
0.0
146
0.0
 13
0.0
 23
0.0
 33
0.0
 16
1.0
 26
0.0
 36
0.0
 17
0.0
 27
1.0
 37
0.0
 76
     0
330
23
  0
LAYOUT
  5
22
102
{ACAD_REACTORS
330
1A
102
}
330
1A
100
AcDbPlotSettings
  1

  2
none_device
  4

  6

 40
0.0
 41
0.0
 42
0.0
 43
0.0
 44
0.0
 45
0.0
 46
0.0
 47
0.0
 48
0.0
 49
0.0
140
0.0
141
0.0
142
1.0
143
1.0
 70
  1712
 72
     0
 73
     0
 74
     0
  7

 75
     0
147
1.0
148
0.0
149
0.0
100
AcDbLayout
  1
Model
 70
     1
 71
     0
 10
0.0
 20
0.0
 11
12.0
 21
9.0
 12
0.0
 22
0.0
 32
0.0
 14
-104.7270646427525
 24
0.0
 34
0.0
 15
0.27293535724763
 25
148.5
 35
0.0
146
0.0
 13
0.0
 23
0.0
 33
0.0
 16
1.0
 26
0.0
 36
0.0
 17
0.0
 27
1.0
 37
0.0
 76
     0
330
1F
331
29
  0
MATERIAL
  5
3D
102
{ACAD_REACTORS
330
3B
102
}
102
{ACAD_XDICTIONARY
360
189
102
}
330
3B
100
AcDbMaterial
  1
ByBlock
  0
MATERIAL
  5
3C
102
{ACAD_REACTORS
330
3B
102
}
102
{ACAD_XDICTIONARY
360
187
102
}
330
3B
100
AcDbMaterial
  1
ByLayer
  0
MATERIAL
  5
3E
102
{ACAD_REACTORS
330
3B
102
}
102
{ACAD_XDICTIONARY
360
18B
102
}
330
3B
100
AcDbMaterial
  1
Global
  0
MLINESTYLE
  5
18
102
{ACAD_REACTORS
330
17
102
}
330
17
100
AcDbMlineStyle
  2
Standard
 70
     0
  3

 62
   256
 51
90.0
 52
90.0
 71
     2
 49
0.5
 62
   256
  6
BYLAYER
 49
-0.5
 62
   256
  6
BYLAYER
  0
ACDBPLACEHOLDER
  5
F
102
{ACAD_REACTORS
330
E
102
}
330
E
  0
VISUALSTYLE
  5
2F
102
{ACAD_REACTORS
330
2A
102
}
102
{ACAD_XDICTIONARY
360
16F
102
}
330
2A
100
AcDbVisualStyle
  2
2dWireframe
 70
     4
 71
     0
 72
     2
 73
     0
 90
        0
 40
-0.6
 41
-30.0
 62
     5
 63
     7
 74
     1
 91
        4
 64
     7
 65
   257
 75
     1
175
     1
 42
1.0
 92
        0
 66
   257
 43
1.0
 76
     1
 77
     6
 78
     2
 67
     7
 79
     5
170
     0
171
     0
290
     0
174
     0
 93
        1
 44
0.0
173
     0
291
     0
 45
0.0
1001
ACAD
1000
AcDbSavedByObjectVersion
1070
     0
  0
VISUALSTYLE
  5
31
102
{ACAD_REACTORS
330
2A
102
}
102
{ACAD_XDICTIONARY
360
173
102
}
330
2A
100
AcDbVisualStyle
  2
3D Hidden
 70
     6
 71
     1
 72
     2
 73
     2
 90
        0
 40
-0.6
 41
-30.0
 62
     5
 63
     7
 74
     2
 91
        2
 64
     7
 65
   257
 75
     2
175
     1
 42
40.0
 92
        0
 66
   257
 43
1.0
 76
     1
 77
     6
 78
     2
 67
     7
 79
     3
170
     0
171
     0
290
     0
174
     0
 93
        1
 44
0.0
173
     0
291
     0
 45
0.0
1001
ACAD
1000
AcDbSavedByObjectVersion
1070
     0
  0
VISUALSTYLE
  5
30
102
{ACAD_REACTORS
330
2A
102
}
102
{ACAD_XDICTIONARY
360
171
102
}
330
2A
100
AcDbVisualStyle
  2
3dWireframe
 70
     5
 71
     0
 72
     2
 73
     0
 90
        0
 40
-0.6
 41
-30.0
 62
     5
 63
     7
 74
     1
 91
        4
 64
     7
 65
   257
 75
     1
175
     1
 42
1.0
 92
        0
 66
   257
 43
1.0
 76
     1
 77
     6
 78
     2
 67
     7
 79
     5
170
     0
171
     0
290
     0
174
     0
 93
        1
 44
0.0
173
     0
291
     0
 45
0.0
1001
ACAD
1000
AcDbSavedByObjectVersion
1070
     0
  0
VISUALSTYLE
  5
32
102
{ACAD_REACTORS
330
2A
102
}
102
{ACAD_XDICTIONARY
360
175
102
}
330
2A
100
AcDbVisualStyle
  2
Basic
 70
     7
 71
     1
 72
     0
 73
     1
 90
        0
 40
-0.6
 41
-30.0
 62
     5
 63
     7
 74
     0
 91
        4
 64
     7
 65
   257
 75
     1
175
     1
 42
1.0
 92
        8
 66
     7
 43
1.0
 76
     1
 77
     6
 78
     2
 67
     7
 79
     5
170
     0
171
     0
290
     0
174
     0
 93
        1
 44
0.0
173
     0
291
     1
 45
0.0
1001
ACAD
1000
AcDbSavedByObjectVersion
1070
     0
  0
VISUALSTYLE
  5
36
102
{ACAD_REACTORS
330
2A
102
}
102
{ACAD_XDICTIONARY
360
17D
102
}
330
2A
100
AcDbVisualStyle
  2
Brighten
 70
    12
 71
     2
 72
     2
 73
     0
 90
        0
 40
-0.6
 41
-30.0
 62
     5
 63
     7
 74
     1
 91
        4
 64
     7
 65
   257
 75
     1
175
     1
 42
1.0
 92
        8
 66
     7
 43
1.0
 76
     1
 77
     6
 78
     2
 67
     7
 79
     5
170
     0
171
     0
290
     0
174
     0
 93
        1
 44
50.0
173
     0
291
     1
 45
0.0
1001
ACAD
1000
AcDbSavedByObjectVersion
1070
     0
  0
VISUALSTYLE
  5
3A
102
{ACAD_REACTORS
330
2A
102
}
102
{ACAD_XDICTIONARY
360
185
102
}
330
2A
100
AcDbVisualStyle
  2
ColorChange
 70
    16
 71
     2
 72
     2
 73
     3
 90
        0
 40
-0.6
 41
-30.0
 62
     5
 63
     8
 74
     1
 91
        4
 64
     7
 65
   257
 75
     1
175
     1
 42
1.0
 92
        8
 66
     8
 43
1.0
 76
     1
 77
     6
 78
     2
 67
     7
 79
     5
170
     0
171
     0
290
     0
174
     0
 93
        1
 44
0.0
173
     0
291
     1
 45
0.0
1001
ACAD
1000
AcDbSavedByObjectVersion
1070
     0
  0
VISUALSTYLE
  5
34
102
{ACAD_REACTORS
330
2A
102
}
102
{ACAD_XDICTIONARY
360
179
102
}
330
2A
100
AcDbVisualStyle
  2
Conceptual
 70
     9
 71
     3
 72
     2
 73
     0
 90
        0
 40
-0.6
 41
-30.0
 62
     5
 63
     7
 74
     2
 91
        2
 64
     7
 65
   257
 75
     1
175
     1
 42
40.0
 92
        8
 66
     7
 43
1.0
 76
     1
 77
     6
 78
     2
 67
     7
 79
     3
170
     0
171
     0
290
     0
174
     0
 93
        1
 44
0.0
173
     0
291
     0
 45
0.0
1001
ACAD
1000
AcDbSavedByObjectVersion
1070
     0
  0
VISUALSTYLE
  5
35
102
{ACAD_REACTORS
330
2A
102
}
102
{ACAD_XDICTIONARY
360
17B
102
}
330
2A
100
AcDbVisualStyle
  2
Dim
 70
    11
 71
     2
 72
     2
 73
     0
 90
        0
 40
-0.6
 41
-30.0
 62
     5
 63
     7
 74
     1
 91
        4
 64
     7
 65
   257
 75
     1
175
     1
 42
1.0
 92
        8
 66
     7
 43
1.0
 76
     1
 77
     6
 78
     2
 67
     7
 79
     5
170
     0
171
     0
290
     0
174
     0
 93
        1
 44
-50.0
173
     0
291
     1
 45
0.0
1001
ACAD
1000
AcDbSavedByObjectVersion
1070
     0
  0
VISUALSTYLE
  5
39
102
{ACAD_REACTORS
330
2A
102
}
102
{ACAD_XDICTIONARY
360
183
102
}
330
2A
100
AcDbVisualStyle
  2
Facepattern
 70
    15
 71
     2
 72
     2
 73
     0
 90
        0
 40
-0.6
 41
-30.0
 62
     5
 63
     7
 74
     1
 91
        4
 64
     7
 65
   257
 75
     1
175
     1
 42
1.0
 92
        8
 66
     7
 43
1.0
 76
     1
 77
     6
 78
     2
 67
     7
 79
     5
170
     0
171
     0
290
     0
174
     0
 93
        1
 44
0.0
173
     0
291
     1
 45
0.0
1001
ACAD
1000
AcDbSavedByObjectVersion
1070
     0
  0
VISUALSTYLE
  5
2B
102
{ACAD_REACTORS
330
2A
102
}
102
{ACAD_XDICTIONARY
360
167
102
}
330
2A
100
AcDbVisualStyle
  2
Flat
 70
     0
 71
     2
 72
     1
 73
     1
 90
        2
 40
-0.6
 41
30.0
 62
     5
 63
     7
 74
     0
 91
        4
 64
     7
 65
   257
 75
     1
175
     1
 42
1.0
 92
        8
 66
     7
 43
1.0
 76
     1
 77
     6
 78
     2
 67
     7
 79
     5
170
     0
171
     0
290
     0
174
     0
 93
       13
 44
0.0
173
     0
291
     1
 45
0.0
1001
ACAD
1000
AcDbSavedByObjectVersion
1070
     0
  0
VISUALSTYLE
  5
2C
102
{ACAD_REACTORS
330
2A
102
}
102
{ACAD_XDICTIONARY
360
169
102
}
330
2A
100
AcDbVisualStyle
  2
FlatWithEdges
 70
     1
 71
     2
 72
     1
 73
     1
 90
        2
 40
-0.6
 41
30.0
 62
     5
 63
     7
 74
     1
 91
        4
 64
     7
 65
   257
 75
     1
175
     1
 42
1.0
 92
        0
 66
   257
 43
1.0
 76
     1
 77
     6
 78
     2
 67
     7
 79
     5
170
     0
171
     0
290
     0
174
     0
 93
       13
 44
0.0
173
     0
291
     1
 45
0.0
1001
ACAD
1000
AcDbSavedByObjectVersion
1070
     0
  0
VISUALSTYLE
  5
2D
102
{ACAD_REACTORS
330
2A
102
}
102
{ACAD_XDICTIONARY
360
16B
102
}
330
2A
100
AcDbVisualStyle
  2
Gouraud
 70
     2
 71
     2
 72
     2
 73
     1
 90
        2
 40
-0.6
 41
30.0
 62
     5
 63
     7
 74
     0
 91
        4
 64
     7
 65
   257
 75
     1
175
     1
 42
1.0
 92
        0
 66
     7
 43
1.0
 76
     1
 77
     6
 78
     2
 67
     7
 79
     5
170
     0
171
     0
290
     0
174
     0
 93
       13
 44
0.0
173
     0
291
     1
 45
0.0
1001
ACAD
1000
AcDbSavedByObjectVersion
1070
     0
  0
VISUALSTYLE
  5
2E
102
{ACAD_REACTORS
330
2A
102
}
102
{ACAD_XDICTIONARY
360
16D
102
}
330
2A
100
AcDbVisualStyle
  2
GouraudWithEdges
 70
     3
 71
     2
 72
     2
 73
     1
 90
        2
 40
-0.6
 41
30.0
 62
     5
 63
     7
 74
     1
 91
        4
 64
     7
 65
   257
 75
     1
175
     1
 42
1.0
 92
        0
 66
   257
 43
1.0
 76
     1
 77
     6
 78
     2
 67
     7
 79
     5
170
     0
171
     0
290
     0
174
     0
 93
       13
 44
0.0
173
     0
291
     1
 45
0.0
1001
ACAD
1000
AcDbSavedByObjectVersion
1070
     0
  0
VISUALSTYLE
  5
38
102
{ACAD_REACTORS
330
2A
102
}
102
{ACAD_XDICTIONARY
360
181
102
}
330
2A
100
AcDbVisualStyle
  2
Linepattern
 70
    14
 71
     2
 72
     2
 73
     0
 90
        0
 40
-0.6
 41
-30.0
 62
     5
 63
     7
 74
     1
 91
        4
 64
     7
 65
   257
 75
     7
175
     7
 42
1.0
 92
        8
 66
     7
 43
1.0
 76
     1
 77
     6
 78
     2
 67
     7
 79
     5
170
     0
171
     0
290
     0
174
     0
 93
        1
 44
0.0
173
     0
291
     1
 45
0.0
1001
ACAD
1000
AcDbSavedByObjectVersion
1070
     0
  0
VISUALSTYLE
  5
33
102
{ACAD_REACTORS
330
2A
102
}
102
{ACAD_XDICTIONARY
360
177
102
}
330
2A
100
AcDbVisualStyle
  2
Realistic
 70
     8
 71
     2
 72
     2
 73
     0
 90
        0
 40
-0.6
 41
-30.0
 62
     5
 63
     7
 74
     1
 91
        0
 64
     7
 65
   257
 75
     1
175
     1
 42
1.0
 92
        8
 66
     8
 43
1.0
 76
     1
 77
     6
 78
     2
 67
     7
 79
     5
170
     0
171
     0
290
     0
174
     0
 93
       13
 44
0.0
173
     0
291
     0
 45
0.0
1001
ACAD
1000
AcDbSavedByObjectVersion
1070
     0
  0
VISUALSTYLE
  5
37
102
{ACAD_REACTORS
330
2A
102
}
102
{ACAD_XDICTIONARY
360
17F
102
}
330
2A
100
AcDbVisualStyle
  2
Thicken
 70
    13
 71
     2
 72
     2
 73
     0
 90
        0
 40
-0.6
 41
-30.0
 62
     5
 63
     7
 74
     1
 91
        4
 64
     7
 65
   257
 75
     1
175
     1
 42
1.0
 92
       12
 66
     7
 43
1.0
 76
     1
 77
     6
 78
     2
 67
     7
 79
     5
170
     0
171
     0
290
     0
174
     0
 93
        1
 44
0.0
173
     0
291
     1
 45
0.0
1001
ACAD
1000
AcDbSavedByObjectVersion
1070
     0
  0
DICTIONARYVAR
  5
165
102
{ACAD_REACTORS
330
162
102
}
330
162
100
DictionaryVariables
280
     0
  1
2
  0
DICTIONARYVAR
  5
166
102
{ACAD_REACTORS
330
162
102
}
330
162
100
DictionaryVariables
280
     0
  1
1
  0
DICTIONARY
  5
189
330
3D
100
AcDbDictionary
280
     1
281
     1
  3
ACAD_XREC_ROUNDTRIP
360
18A
  0
DICTIONARY
  5
187
330
3C
100
AcDbDictionary
280
     1
281
     1
  3
ACAD_XREC_ROUNDTRIP
360
188
  0
DICTIONARY
  5
18B
330
3E
100
AcDbDictionary
280
     1
281
     1
  3
ACAD_XREC_ROUNDTRIP
360
18C
  0
DICTIONARY
  5
16F
330
2F
100
AcDbDictionary
280
     1
281
     1
  3
ACAD_XREC_ROUNDTRIP
360
170
  0
DICTIONARY
  5
173
330
31
100
AcDbDictionary
280
     1
281
     1
  3
ACAD_XREC_ROUNDTRIP
360
174
  0
DICTIONARY
  5
171
330
30
100
AcDbDictionary
280
     1
281
     1
  3
ACAD_XREC_ROUNDTRIP
360
172
  0
DICTIONARY
  5
175
330
32
100
AcDbDictionary
280
     1
281
     1
  3
ACAD_XREC_ROUNDTRIP
360
176
  0
DICTIONARY
  5
17D
330
36
100
AcDbDictionary
280
     1
281
     1
  3
ACAD_XREC_ROUNDTRIP
360
17E
  0
DICTIONARY
  5
185
330
3A
100
AcDbDictionary
280
     1
281
     1
  3
ACAD_XREC_ROUNDTRIP
360
186
  0
DICTIONARY
  5
179
330
34
100
AcDbDictionary
280
     1
281
     1
  3
ACAD_XREC_ROUNDTRIP
360
17A
  0
DICTIONARY
  5
17B
330
35
100
AcDbDictionary
280
     1
281
     1
  3
ACAD_XREC_ROUNDTRIP
360
17C
  0
DICTIONARY
  5
183
330
39
100
AcDbDictionary
280
     1
281
     1
  3
ACAD_XREC_ROUNDTRIP
360
184
  0
DICTIONARY
  5
167
330
2B
100
AcDbDictionary
280
     1
281
     1
  3
ACAD_XREC_ROUNDTRIP
360
168
  0
DICTIONARY
  5
169
330
2C
100
AcDbDictionary
280
     1
281
     1
  3
ACAD_XREC_ROUNDTRIP
360
16A
  0
DICTIONARY
  5
16B
330
2D
100
AcDbDictionary
280
     1
281
     1
  3
ACAD_XREC_ROUNDTRIP
360
16C
  0
DICTIONARY
  5
16D
330
2E
100
AcDbDictionary
280
     1
281
     1
  3
ACAD_XREC_ROUNDTRIP
360
16E
  0
DICTIONARY
  5
181
330
38
100
AcDbDictionary
280
     1
281
     1
  3
ACAD_XREC_ROUNDTRIP
360
182
  0
DICTIONARY
  5
177
330
33
100
AcDbDictionary
280
     1
281
     1
  3
ACAD_XREC_ROUNDTRIP
360
178
  0
DICTIONARY
  5
17F
330
37
100
AcDbDictionary
280
     1
281
     1
  3
ACAD_XREC_ROUNDTRIP
360
180
  0
XRECORD
  5
18A
102
{ACAD_REACTORS
330
189
102
}
330
189
100
AcDbXrecord
280
     1
102
MATERIAL
148
0.0
149
0.0
149
0.0
 93
        0
 94
      127
282
     0
 72
     1
 77
     1
171
     1
175
     1
179
     1
273
     0
  0
XRECORD
  5
188
102
{ACAD_REACTORS
330
187
102
}
330
187
100
AcDbXrecord
280
     1
102
MATERIAL
148
0.0
149
0.0
149
0.0
 93
        0
 94
      127
282
     0
 72
     1
 77
     1
171
     1
175
     1
179
     1
273
     0
  0
XRECORD
  5
18C
102
{ACAD_REACTORS
330
18B
102
}
330
18B
100
AcDbXrecord
280
     1
102
MATERIAL
148
0.0
149
0.0
149
0.0
 93
        0
 94
      127
282
     0
 72
     1
 77
     1
171
     1
175
     1
179
     1
273
     0
  0
XRECORD
  5
170
102
{ACAD_REACTORS
330
16F
102
}
330
16F
100
AcDbXrecord
280
     1
102
RTVSPropertyOp0
 70
     1
102
RTVSPropertyOp1
 70
     1
102
RTVSPropertyOp2
 70
     1
102
RTVSPropertyOp3
 70
     1
102
RTVSPropertyOp4
 70
     1
102
RTVSPropertyOp5
 70
     1
102
RTVSPropertyOp6
 70
     1
102
RTVSPropertyOp7
 70
     1
102
RTVSPropertyOp8
 70
     1
102
RTVSPropertyOp9
 70
     1
102
RTVSPropertyOp10
 70
     1
102
RTVSPropertyOp11
 70
     1
102
RTVSPropertyOp12
 70
     1
102
RTVSPropertyOp13
 70
     1
102
RTVSPropertyOp14
 70
     1
102
RTVSPropertyOp15
 70
     1
102
RTVSPropertyOp16
 70
     1
102
RTVSPropertyOp17
 70
     1
102
RTVSPropertyOp18
 70
     1
102
RTVSPropertyOp19
 70
     1
102
RTVSPropertyOp20
 70
     1
102
RTVSPropertyOp21
 70
     1
102
RTVSPropertyOp22
 70
     1
102
RTVSPropertyOp23
 70
     1
102
RTVSPropertyOp24
 70
     1
102
RTVSPropertyOp25
 70
     1
102
RTVSPropertyOp26
 70
     1
102
RTVSPropertyOp27
 70
     1
102
RTVSPropertyOp28
 70
     1
102
RTVSPropertyOp29
 70
     1
102
RTVSPropertyOp30
 70
     1
102
RTVSPropertyOp31
 70
     1
102
RTVSPropertyOp32
 70
     1
  0
XRECORD
  5
174
102
{ACAD_REACTORS
330
173
102
}
330
173
100
AcDbXrecord
280
     1
102
RTVSPropertyOp0
 70
     1
102
RTVSPropertyOp1
 70
     1
102
RTVSPropertyOp2
 70
     1
102
RTVSPropertyOp3
 70
     1
102
RTVSPropertyOp4
 70
     1
102
RTVSPropertyOp5
 70
     1
102
RTVSPropertyOp6
 70
     1
102
RTVSPropertyOp7
 70
     1
102
RTVSPropertyOp8
 70
     1
102
RTVSPropertyOp9
 70
     1
102
RTVSPropertyOp10
 70
     1
102
RTVSPropertyOp11
 70
     1
102
RTVSPropertyOp12
 70
     1
102
RTVSPropertyOp13
 70
     1
102
RTVSPropertyOp14
 70
     1
102
RTVSPropertyOp15
 70
     1
102
RTVSPropertyOp16
 70
     1
102
RTVSPropertyOp17
 70
     1
102
RTVSPropertyOp18
 70
     1
102
RTVSPropertyOp19
 70
     1
102
RTVSPropertyOp20
 70
     1
102
RTVSPropertyOp21
 70
     1
102
RTVSPropertyOp22
 70
     1
102
RTVSPropertyOp23
 70
     1
102
RTVSPropertyOp24
 70
     1
102
RTVSPropertyOp25
 70
     1
102
RTVSPropertyOp26
 70
     1
102
RTVSPropertyOp27
 70
     1
102
RTVSPropertyOp28
 70
     1
102
RTVSPropertyOp29
 70
     1
102
RTVSPropertyOp30
 70
     1
102
RTVSPropertyOp31
 70
     1
102
RTVSPropertyOp32
 70
     1
  0
XRECORD
  5
172
102
{ACAD_REACTORS
330
171
102
}
330
171
100
AcDbXrecord
280
     1
102
RTVSPropertyOp0
 70
     1
102
RTVSPropertyOp1
 70
     1
102
RTVSPropertyOp2
 70
     1
102
RTVSPropertyOp3
 70
     1
102
RTVSPropertyOp4
 70
     1
102
RTVSPropertyOp5
 70
     1
102
RTVSPropertyOp6
 70
     1
102
RTVSPropertyOp7
 70
     1
102
RTVSPropertyOp8
 70
     1
102
RTVSPropertyOp9
 70
     1
102
RTVSPropertyOp10
 70
     1
102
RTVSPropertyOp11
 70
     1
102
RTVSPropertyOp12
 70
     1
102
RTVSPropertyOp13
 70
     1
102
RTVSPropertyOp14
 70
     1
102
RTVSPropertyOp15
 70
     1
102
RTVSPropertyOp16
 70
     1
102
RTVSPropertyOp17
 70
     1
102
RTVSPropertyOp18
 70
     1
102
RTVSPropertyOp19
 70
     1
102
RTVSPropertyOp20
 70
     1
102
RTVSPropertyOp21
 70
     1
102
RTVSPropertyOp22
 70
     1
102
RTVSPropertyOp23
 70
     1
102
RTVSPropertyOp24
 70
     1
102
RTVSPropertyOp25
 70
     1
102
RTVSPropertyOp26
 70
     1
102
RTVSPropertyOp27
 70
     1
102
RTVSPropertyOp28
 70
     1
102
RTVSPropertyOp29
 70
     1
102
RTVSPropertyOp30
 70
     1
102
RTVSPropertyOp31
 70
     1
102
RTVSPropertyOp32
 70
     1
  0
XRECORD
  5
176
102
{ACAD_REACTORS
330
175
102
}
330
175
100
AcDbXrecord
280
     1
102
RTVSPropertyOp0
 70
     1
102
RTVSPropertyOp1
 70
     1
102
RTVSPropertyOp2
 70
     1
102
RTVSPropertyOp3
 70
     1
102
RTVSPropertyOp4
 70
     1
102
RTVSPropertyOp5
 70
     1
102
RTVSPropertyOp6
 70
     1
102
RTVSPropertyOp7
 70
     1
102
RTVSPropertyOp8
 70
     1
102
RTVSPropertyOp9
 70
     1
102
RTVSPropertyOp10
 70
     1
102
RTVSPropertyOp11
 70
     1
102
RTVSPropertyOp12
 70
     1
102
RTVSPropertyOp13
 70
     1
102
RTVSPropertyOp14
 70
     1
102
RTVSPropertyOp15
 70
     1
102
RTVSPropertyOp16
 70
     1
102
RTVSPropertyOp17
 70
     1
102
RTVSPropertyOp18
 70
     1
102
RTVSPropertyOp19
 70
     1
102
RTVSPropertyOp20
 70
     1
102
RTVSPropertyOp21
 70
     1
102
RTVSPropertyOp22
 70
     1
102
RTVSPropertyOp23
 70
     1
102
RTVSPropertyOp24
 70
     1
102
RTVSPropertyOp25
 70
     1
102
RTVSPropertyOp26
 70
     1
102
RTVSPropertyOp27
 70
     1
102
RTVSPropertyOp28
 70
     1
102
RTVSPropertyOp29
 70
     1
102
RTVSPropertyOp30
 70
     1
102
RTVSPropertyOp31
 70
     1
102
RTVSPropertyOp32
 70
     1
  0
XRECORD
  5
17E
102
{ACAD_REACTORS
330
17D
102
}
330
17D
100
AcDbXrecord
280
     1
102
RTVSPropertyOp0
 70
     1
102
RTVSPropertyOp1
 70
     1
102
RTVSPropertyOp2
 70
     1
102
RTVSPropertyOp3
 70
     1
102
RTVSPropertyOp4
 70
     1
102
RTVSPropertyOp5
 70
     1
102
RTVSPropertyOp6
 70
     1
102
RTVSPropertyOp7
 70
     1
102
RTVSPropertyOp8
 70
     1
102
RTVSPropertyOp9
 70
     1
102
RTVSPropertyOp10
 70
     1
102
RTVSPropertyOp11
 70
     1
102
RTVSPropertyOp12
 70
     1
102
RTVSPropertyOp13
 70
     1
102
RTVSPropertyOp14
 70
     1
102
RTVSPropertyOp15
 70
     1
102
RTVSPropertyOp16
 70
     1
102
RTVSPropertyOp17
 70
     1
102
RTVSPropertyOp18
 70
     1
102
RTVSPropertyOp19
 70
     1
102
RTVSPropertyOp20
 70
     1
102
RTVSPropertyOp21
 70
     1
102
RTVSPropertyOp22
 70
     1
102
RTVSPropertyOp23
 70
     1
102
RTVSPropertyOp24
 70
     1
102
RTVSPropertyOp25
 70
     1
102
RTVSPropertyOp26
 70
     1
102
RTVSPropertyOp27
 70
     1
102
RTVSPropertyOp28
 70
     1
102
RTVSPropertyOp29
 70
     1
102
RTVSPropertyOp30
 70
     1
102
RTVSPropertyOp31
 70
     1
102
RTVSPropertyOp32
 70
     1
  0
XRECORD
  5
186
102
{ACAD_REACTORS
330
185
102
}
330
185
100
AcDbXrecord
280
     1
102
RTVSPropertyOp0
 70
     1
102
RTVSPropertyOp1
 70
     1
102
RTVSPropertyOp2
 70
     1
102
RTVSPropertyOp3
 70
     1
102
RTVSPropertyOp4
 70
     1
102
RTVSPropertyOp5
 70
     1
102
RTVSPropertyOp6
 70
     1
102
RTVSPropertyOp7
 70
     1
102
RTVSPropertyOp8
 70
     1
102
RTVSPropertyOp9
 70
     1
102
RTVSPropertyOp10
 70
     1
102
RTVSPropertyOp11
 70
     1
102
RTVSPropertyOp12
 70
     1
102
RTVSPropertyOp13
 70
     1
102
RTVSPropertyOp14
 70
     1
102
RTVSPropertyOp15
 70
     1
102
RTVSPropertyOp16
 70
     1
102
RTVSPropertyOp17
 70
     1
102
RTVSPropertyOp18
 70
     1
102
RTVSPropertyOp19
 70
     1
102
RTVSPropertyOp20
 70
     1
102
RTVSPropertyOp21
 70
     1
102
RTVSPropertyOp22
 70
     1
102
RTVSPropertyOp23
 70
     1
102
RTVSPropertyOp24
 70
     1
102
RTVSPropertyOp25
 70
     1
102
RTVSPropertyOp26
 70
     1
102
RTVSPropertyOp27
 70
     1
102
RTVSPropertyOp28
 70
     1
102
RTVSPropertyOp29
 70
     1
102
RTVSPropertyOp30
 70
     1
102
RTVSPropertyOp31
 70
     1
102
RTVSPropertyOp32
 70
     1
  0
XRECORD
  5
17A
102
{ACAD_REACTORS
330
179
102
}
330
179
100
AcDbXrecord
280
     1
102
RTVSPropertyOp0
 70
     1
102
RTVSPropertyOp1
 70
     1
102
RTVSPropertyOp2
 70
     1
102
RTVSPropertyOp3
 70
     1
102
RTVSPropertyOp4
 70
     1
102
RTVSPropertyOp5
 70
     1
102
RTVSPropertyOp6
 70
     1
102
RTVSPropertyOp7
 70
     1
102
RTVSPropertyOp8
 70
     1
102
RTVSPropertyOp9
 70
     1
102
RTVSPropertyOp10
 70
     1
102
RTVSPropertyOp11
 70
     1
102
RTVSPropertyOp12
 70
     1
102
RTVSPropertyOp13
 70
     1
102
RTVSPropertyOp14
 70
     1
102
RTVSPropertyOp15
 70
     1
102
RTVSPropertyOp16
 70
     1
102
RTVSPropertyOp17
 70
     1
102
RTVSPropertyOp18
 70
     1
102
RTVSPropertyOp19
 70
     1
102
RTVSPropertyOp20
 70
     1
102
RTVSPropertyOp21
 70
     1
102
RTVSPropertyOp22
 70
     1
102
RTVSPropertyOp23
 70
     1
102
RTVSPropertyOp24
 70
     1
102
RTVSPropertyOp25
 70
     1
102
RTVSPropertyOp26
 70
     1
102
RTVSPropertyOp27
 70
     1
102
RTVSPropertyOp28
 70
     1
102
RTVSPropertyOp29
 70
     1
102
RTVSPropertyOp30
 70
     1
102
RTVSPropertyOp31
 70
     1
102
RTVSPropertyOp32
 70
     1
  0
XRECORD
  5
17C
102
{ACAD_REACTORS
330
17B
102
}
330
17B
100
AcDbXrecord
280
     1
102
RTVSPropertyOp0
 70
     1
102
RTVSPropertyOp1
 70
     1
102
RTVSPropertyOp2
 70
     1
102
RTVSPropertyOp3
 70
     1
102
RTVSPropertyOp4
 70
     1
102
RTVSPropertyOp5
 70
     1
102
RTVSPropertyOp6
 70
     1
102
RTVSPropertyOp7
 70
     1
102
RTVSPropertyOp8
 70
     1
102
RTVSPropertyOp9
 70
     1
102
RTVSPropertyOp10
 70
     1
102
RTVSPropertyOp11
 70
     1
102
RTVSPropertyOp12
 70
     1
102
RTVSPropertyOp13
 70
     1
102
RTVSPropertyOp14
 70
     1
102
RTVSPropertyOp15
 70
     1
102
RTVSPropertyOp16
 70
     1
102
RTVSPropertyOp17
 70
     1
102
RTVSPropertyOp18
 70
     1
102
RTVSPropertyOp19
 70
     1
102
RTVSPropertyOp20
 70
     1
102
RTVSPropertyOp21
 70
     1
102
RTVSPropertyOp22
 70
     1
102
RTVSPropertyOp23
 70
     1
102
RTVSPropertyOp24
 70
     1
102
RTVSPropertyOp25
 70
     1
102
RTVSPropertyOp26
 70
     1
102
RTVSPropertyOp27
 70
     1
102
RTVSPropertyOp28
 70
     1
102
RTVSPropertyOp29
 70
     1
102
RTVSPropertyOp30
 70
     1
102
RTVSPropertyOp31
 70
     1
102
RTVSPropertyOp32
 70
     1
  0
XRECORD
  5
184
102
{ACAD_REACTORS
330
183
102
}
330
183
100
AcDbXrecord
280
     1
102
RTVSPropertyOp0
 70
     1
102
RTVSPropertyOp1
 70
     1
102
RTVSPropertyOp2
 70
     1
102
RTVSPropertyOp3
 70
     1
102
RTVSPropertyOp4
 70
     1
102
RTVSPropertyOp5
 70
     1
102
RTVSPropertyOp6
 70
     1
102
RTVSPropertyOp7
 70
     1
102
RTVSPropertyOp8
 70
     1
102
RTVSPropertyOp9
 70
     1
102
RTVSPropertyOp10
 70
     1
102
RTVSPropertyOp11
 70
     1
102
RTVSPropertyOp12
 70
     1
102
RTVSPropertyOp13
 70
     1
102
RTVSPropertyOp14
 70
     1
102
RTVSPropertyOp15
 70
     1
102
RTVSPropertyOp16
 70
     1
102
RTVSPropertyOp17
 70
     1
102
RTVSPropertyOp18
 70
     1
102
RTVSPropertyOp19
 70
     1
102
RTVSPropertyOp20
 70
     1
102
RTVSPropertyOp21
 70
     1
102
RTVSPropertyOp22
 70
     1
102
RTVSPropertyOp23
 70
     1
102
RTVSPropertyOp24
 70
     1
102
RTVSPropertyOp25
 70
     1
102
RTVSPropertyOp26
 70
     1
102
RTVSPropertyOp27
 70
     1
102
RTVSPropertyOp28
 70
     1
102
RTVSPropertyOp29
 70
     1
102
RTVSPropertyOp30
 70
     1
102
RTVSPropertyOp31
 70
     1
102
RTVSPropertyOp32
 70
     1
  0
XRECORD
  5
168
102
{ACAD_REACTORS
330
167
102
}
330
167
100
AcDbXrecord
280
     1
102
RTVSPropertyOp0
 70
     1
102
RTVSPropertyOp1
 70
     1
102
RTVSPropertyOp2
 70
     1
102
RTVSPropertyOp3
 70
     1
102
RTVSPropertyOp4
 70
     1
102
RTVSPropertyOp5
 70
     1
102
RTVSPropertyOp6
 70
     1
102
RTVSPropertyOp7
 70
     1
102
RTVSPropertyOp8
 70
     1
102
RTVSPropertyOp9
 70
     1
102
RTVSPropertyOp10
 70
     1
102
RTVSPropertyOp11
 70
     1
102
RTVSPropertyOp12
 70
     1
102
RTVSPropertyOp13
 70
     1
102
RTVSPropertyOp14
 70
     1
102
RTVSPropertyOp15
 70
     1
102
RTVSPropertyOp16
 70
     1
102
RTVSPropertyOp17
 70
     1
102
RTVSPropertyOp18
 70
     1
102
RTVSPropertyOp19
 70
     1
102
RTVSPropertyOp20
 70
     1
102
RTVSPropertyOp21
 70
     1
102
RTVSPropertyOp22
 70
     1
102
RTVSPropertyOp23
 70
     1
102
RTVSPropertyOp24
 70
     1
102
RTVSPropertyOp25
 70
     1
102
RTVSPropertyOp26
 70
     1
102
RTVSPropertyOp27
 70
     1
102
RTVSPropertyOp28
 70
     1
102
RTVSPropertyOp29
 70
     1
102
RTVSPropertyOp30
 70
     1
102
RTVSPropertyOp31
 70
     1
102
RTVSPropertyOp32
 70
     1
  0
XRECORD
  5
16A
102
{ACAD_REACTORS
330
169
102
}
330
169
100
AcDbXrecord
280
     1
102
RTVSPropertyOp0
 70
     1
102
RTVSPropertyOp1
 70
     1
102
RTVSPropertyOp2
 70
     1
102
RTVSPropertyOp3
 70
     1
102
RTVSPropertyOp4
 70
     1
102
RTVSPropertyOp5
 70
     1
102
RTVSPropertyOp6
 70
     1
102
RTVSPropertyOp7
 70
     1
102
RTVSPropertyOp8
 70
     1
102
RTVSPropertyOp9
 70
     1
102
RTVSPropertyOp10
 70
     1
102
RTVSPropertyOp11
 70
     1
102
RTVSPropertyOp12
 70
     1
102
RTVSPropertyOp13
 70
     1
102
RTVSPropertyOp14
 70
     1
102
RTVSPropertyOp15
 70
     1
102
RTVSPropertyOp16
 70
     1
102
RTVSPropertyOp17
 70
     1
102
RTVSPropertyOp18
 70
     1
102
RTVSPropertyOp19
 70
     1
102
RTVSPropertyOp20
 70
     1
102
RTVSPropertyOp21
 70
     1
102
RTVSPropertyOp22
 70
     1
102
RTVSPropertyOp23
 70
     1
102
RTVSPropertyOp24
 70
     1
102
RTVSPropertyOp25
 70
     1
102
RTVSPropertyOp26
 70
     1
102
RTVSPropertyOp27
 70
     1
102
RTVSPropertyOp28
 70
     1
102
RTVSPropertyOp29
 70
     1
102
RTVSPropertyOp30
 70
     1
102
RTVSPropertyOp31
 70
     1
102
RTVSPropertyOp32
 70
     1
  0
XRECORD
  5
16C
102
{ACAD_REACTORS
330
16B
102
}
330
16B
100
AcDbXrecord
280
     1
102
RTVSPropertyOp0
 70
     1
102
RTVSPropertyOp1
 70
     1
102
RTVSPropertyOp2
 70
     1
102
RTVSPropertyOp3
 70
     1
102
RTVSPropertyOp4
 70
     1
102
RTVSPropertyOp5
 70
     1
102
RTVSPropertyOp6
 70
     1
102
RTVSPropertyOp7
 70
     1
102
RTVSPropertyOp8
 70
     1
102
RTVSPropertyOp9
 70
     1
102
RTVSPropertyOp10
 70
     1
102
RTVSPropertyOp11
 70
     1
102
RTVSPropertyOp12
 70
     1
102
RTVSPropertyOp13
 70
     1
102
RTVSPropertyOp14
 70
     1
102
RTVSPropertyOp15
 70
     1
102
RTVSPropertyOp16
 70
     1
102
RTVSPropertyOp17
 70
     1
102
RTVSPropertyOp18
 70
     1
102
RTVSPropertyOp19
 70
     1
102
RTVSPropertyOp20
 70
     1
102
RTVSPropertyOp21
 70
     1
102
RTVSPropertyOp22
 70
     1
102
RTVSPropertyOp23
 70
     1
102
RTVSPropertyOp24
 70
     1
102
RTVSPropertyOp25
 70
     1
102
RTVSPropertyOp26
 70
     1
102
RTVSPropertyOp27
 70
     1
102
RTVSPropertyOp28
 70
     1
102
RTVSPropertyOp29
 70
     1
102
RTVSPropertyOp30
 70
     1
102
RTVSPropertyOp31
 70
     1
102
RTVSPropertyOp32
 70
     1
  0
XRECORD
  5
16E
102
{ACAD_REACTORS
330
16D
102
}
330
16D
100
AcDbXrecord
280
     1
102
RTVSPropertyOp0
 70
     1
102
RTVSPropertyOp1
 70
     1
102
RTVSPropertyOp2
 70
     1
102
RTVSPropertyOp3
 70
     1
102
RTVSPropertyOp4
 70
     1
102
RTVSPropertyOp5
 70
     1
102
RTVSPropertyOp6
 70
     1
102
RTVSPropertyOp7
 70
     1
102
RTVSPropertyOp8
 70
     1
102
RTVSPropertyOp9
 70
     1
102
RTVSPropertyOp10
 70
     1
102
RTVSPropertyOp11
 70
     1
102
RTVSPropertyOp12
 70
     1
102
RTVSPropertyOp13
 70
     1
102
RTVSPropertyOp14
 70
     1
102
RTVSPropertyOp15
 70
     1
102
RTVSPropertyOp16
 70
     1
102
RTVSPropertyOp17
 70
     1
102
RTVSPropertyOp18
 70
     1
102
RTVSPropertyOp19
 70
     1
102
RTVSPropertyOp20
 70
     1
102
RTVSPropertyOp21
 70
     1
102
RTVSPropertyOp22
 70
     1
102
RTVSPropertyOp23
 70
     1
102
RTVSPropertyOp24
 70
     1
102
RTVSPropertyOp25
 70
     1
102
RTVSPropertyOp26
 70
     1
102
RTVSPropertyOp27
 70
     1
102
RTVSPropertyOp28
 70
     1
102
RTVSPropertyOp29
 70
     1
102
RTVSPropertyOp30
 70
     1
102
RTVSPropertyOp31
 70
     1
102
RTVSPropertyOp32
 70
     1
  0
XRECORD
  5
182
102
{ACAD_REACTORS
330
181
102
}
330
181
100
AcDbXrecord
280
     1
102
RTVSPropertyOp0
 70
     1
102
RTVSPropertyOp1
 70
     1
102
RTVSPropertyOp2
 70
     1
102
RTVSPropertyOp3
 70
     1
102
RTVSPropertyOp4
 70
     1
102
RTVSPropertyOp5
 70
     1
102
RTVSPropertyOp6
 70
     1
102
RTVSPropertyOp7
 70
     1
102
RTVSPropertyOp8
 70
     1
102
RTVSPropertyOp9
 70
     1
102
RTVSPropertyOp10
 70
     1
102
RTVSPropertyOp11
 70
     1
102
RTVSPropertyOp12
 70
     1
102
RTVSPropertyOp13
 70
     1
102
RTVSPropertyOp14
 70
     1
102
RTVSPropertyOp15
 70
     1
102
RTVSPropertyOp16
 70
     1
102
RTVSPropertyOp17
 70
     1
102
RTVSPropertyOp18
 70
     1
102
RTVSPropertyOp19
 70
     1
102
RTVSPropertyOp20
 70
     1
102
RTVSPropertyOp21
 70
     1
102
RTVSPropertyOp22
 70
     1
102
RTVSPropertyOp23
 70
     1
102
RTVSPropertyOp24
 70
     1
102
RTVSPropertyOp25
 70
     1
102
RTVSPropertyOp26
 70
     1
102
RTVSPropertyOp27
 70
     1
102
RTVSPropertyOp28
 70
     1
102
RTVSPropertyOp29
 70
     1
102
RTVSPropertyOp30
 70
     1
102
RTVSPropertyOp31
 70
     1
102
RTVSPropertyOp32
 70
     1
  0
XRECORD
  5
178
102
{ACAD_REACTORS
330
177
102
}
330
177
100
AcDbXrecord
280
     1
102
RTVSPropertyOp0
 70
     1
102
RTVSPropertyOp1
 70
     1
102
RTVSPropertyOp2
 70
     1
102
RTVSPropertyOp3
 70
     1
102
RTVSPropertyOp4
 70
     1
102
RTVSPropertyOp5
 70
     1
102
RTVSPropertyOp6
 70
     1
102
RTVSPropertyOp7
 70
     1
102
RTVSPropertyOp8
 70
     1
102
RTVSPropertyOp9
 70
     1
102
RTVSPropertyOp10
 70
     1
102
RTVSPropertyOp11
 70
     1
102
RTVSPropertyOp12
 70
     1
102
RTVSPropertyOp13
 70
     1
102
RTVSPropertyOp14
 70
     1
102
RTVSPropertyOp15
 70
     1
102
RTVSPropertyOp16
 70
     1
102
RTVSPropertyOp17
 70
     1
102
RTVSPropertyOp18
 70
     1
102
RTVSPropertyOp19
 70
     1
102
RTVSPropertyOp20
 70
     1
102
RTVSPropertyOp21
 70
     1
102
RTVSPropertyOp22
 70
     1
102
RTVSPropertyOp23
 70
     1
102
RTVSPropertyOp24
 70
     1
102
RTVSPropertyOp25
 70
     1
102
RTVSPropertyOp26
 70
     1
102
RTVSPropertyOp27
 70
     1
102
RTVSPropertyOp28
 70
     1
102
RTVSPropertyOp29
 70
     1
102
RTVSPropertyOp30
 70
     1
102
RTVSPropertyOp31
 70
     1
102
RTVSPropertyOp32
 70
     1
  0
XRECORD
  5
180
102
{ACAD_REACTORS
330
17F
102
}
330
17F
100
AcDbXrecord
280
     1
102
RTVSPropertyOp0
 70
     1
102
RTVSPropertyOp1
 70
     1
102
RTVSPropertyOp2
 70
     1
102
RTVSPropertyOp3
 70
     1
102
RTVSPropertyOp4
 70
     1
102
RTVSPropertyOp5
 70
     1
102
RTVSPropertyOp6
 70
     1
102
RTVSPropertyOp7
 70
     1
102
RTVSPropertyOp8
 70
     1
102
RTVSPropertyOp9
 70
     1
102
RTVSPropertyOp10
 70
     1
102
RTVSPropertyOp11
 70
     1
102
RTVSPropertyOp12
 70
     1
102
RTVSPropertyOp13
 70
     1
102
RTVSPropertyOp14
 70
     1
102
RTVSPropertyOp15
 70
     1
102
RTVSPropertyOp16
 70
     1
102
RTVSPropertyOp17
 70
     1
102
RTVSPropertyOp18
 70
     1
102
RTVSPropertyOp19
 70
     1
102
RTVSPropertyOp20
 70
     1
102
RTVSPropertyOp21
 70
     1
102
RTVSPropertyOp22
 70
     1
102
RTVSPropertyOp23
 70
     1
102
RTVSPropertyOp24
 70
     1
102
RTVSPropertyOp25
 70
     1
102
RTVSPropertyOp26
 70
     1
102
RTVSPropertyOp27
 70
     1
102
RTVSPropertyOp28
 70
     1
102
RTVSPropertyOp29
 70
     1
102
RTVSPropertyOp30
 70
     1
102
RTVSPropertyOp31
 70
     1
102
RTVSPropertyOp32
 70
     1
  0
ENDSEC
  0
EOF
